<?xml version="1.0" standalone="no"?>
<!DOCTYPE svg PUBLIC "-//W3C//DTD SVG 1.1//EN" "http://www.w3.org/Graphics/SVG/1.1/DTD/svg11.dtd" >
<svg xmlns="http://www.w3.org/2000/svg">
<metadata></metadata>
<defs>
<font id="texgyrepagellabold" horiz-adv-x="500" >
<font-face units-per-em="1000" ascent="742" descent="-258" />
<missing-glyph horiz-adv-x="250" />
<glyph unicode="&#xfb01;" horiz-adv-x="611" d="M10 -3v37l41 2q28 2 35 12.5t7 51.5v272l-79 -5v24q47 23 79 45v43q0 60 9.5 83.5t45.5 53.5l74 62q50 42 93 42q17 0 42 -6v-97l-16 -7q-39 24 -67 24q-34 0 -46.5 -19.5t-12.5 -72.5v-108h111q69 0 118 15l72 22h8v-371q0 -40 6.5 -51t29.5 -13l35 -2v-37q-67 3 -135 3 q-64 0 -129 -3v37l35 2q23 2 29.5 13t6.5 51v226q0 65 -38 65h-31l-7 -19h-111v-272q0 -41 6.5 -52t33.5 -12l35 -2v-37q-69 3 -137 3q-71 0 -143 -3zM397 632q0 31 22 52.5t54 21.5q31 0 52.5 -22t21.5 -53t-22 -53t-53 -22t-53 22t-22 54z" />
<glyph unicode="&#xfb02;" horiz-adv-x="611" d="M17 -3v37l41 2q28 2 35 12.5t7 51.5v272l-79 -5v24q47 23 79 45v43q0 60 9.5 83.5t45.5 53.5l74 62q50 42 89 42l29 -3v-37q79 11 106 20l61 20l8 -6v-614q0 -40 6.5 -51t29.5 -13l35 -2v-37q-67 3 -135 3q-64 0 -129 -3v37l35 2q23 2 29.5 13t6.5 51v468q0 44 -4.5 56 t-21.5 14l-27 3v-33l-15 -4q-26 30 -58 30q-52 0 -52 -92v-108q68 0 121 4l4 -8l-11 -58h-114v-272v-9q0 -18 0.5 -25.5t5.5 -15t15 -10.5t29 -4l25 -2v-37q-69 3 -137 3q-71 0 -143 -3z" />
<glyph unicode="&#xfb03;" horiz-adv-x="971" d="M34 -3v37l41 2q28 2 35 12.5t7 51.5v272l-79 -5v24q47 23 79 45v43q0 60 9.5 83.5t45.5 53.5l74 62q50 42 93 42q17 0 42 -6v-97l-16 -7q-39 24 -67 24q-34 0 -46.5 -19.5t-12.5 -72.5v-108h197v45q0 60 9.5 83.5t45.5 53.5l74 62q50 42 93 42q17 0 42 -6v-97l-16 -7 q-39 24 -67 24q-34 0 -46.5 -19.5t-12.5 -72.5v-108h111q69 0 118 15l72 22h8v-371q0 -40 6.5 -51t29.5 -13l35 -2v-37q-68 3 -135 3q-65 0 -129 -3v37l35 2q23 2 29.5 13t6.5 51v226q0 65 -38 65h-31l-7 -19h-111v-272q0 -41 6.5 -52t33.5 -12l35 -2v-37q-69 3 -137 3 q-71 0 -143 -3v37l41 2q28 2 35 12.5t7 51.5v272h-197v-272q0 -42 6 -50q9 -12 44 -14l37 -2v-37q-78 3 -156 3q-68 0 -136 -3zM740 632q0 31 22 52.5t54 21.5q31 0 52.5 -22t21.5 -53t-22 -53t-53 -22t-53 22t-22 54z" />
<glyph unicode="&#xfb04;" horiz-adv-x="954" d="M34 -3v37l41 2q28 2 35 12.5t7 51.5v272l-79 -5v24q47 23 79 45v43q0 60 9.5 83.5t45.5 53.5l74 62q50 42 93 42q17 0 42 -6v-97l-16 -7q-39 24 -67 24q-34 0 -46.5 -19.5t-12.5 -72.5v-108h204v45q0 60 9.5 83.5t45.5 53.5l74 62q50 42 89 42l29 -3v-37q79 11 106 20 l61 20l8 -6v-614q0 -40 6.5 -51t29.5 -13l35 -2v-37q-68 3 -135 3q-65 0 -129 -3v37l35 2q23 2 29.5 13t6.5 51v468q0 44 -4.5 56t-21.5 14l-27 3v-33l-15 -4q-26 30 -58 30q-52 0 -52 -92v-108l121 4l4 -8l-11 -58h-114v-272v-9q0 -18 0.5 -25.5t5.5 -15t15 -10.5t29 -4 l25 -2v-37q-69 3 -137 3q-71 0 -143 -3v37l41 2q28 2 35 12.5t7 51.5v272h-204v-272q0 -42 6 -50q9 -12 44 -14l35 -2v-37q-77 3 -154 3q-68 0 -136 -3z" />
<glyph horiz-adv-x="1000" />
<glyph horiz-adv-x="1000" />
<glyph unicode="&#xd;" horiz-adv-x="1000" />
<glyph unicode=" "  horiz-adv-x="250" />
<glyph unicode="&#x09;" horiz-adv-x="250" />
<glyph unicode="&#xa0;" horiz-adv-x="250" />
<glyph unicode="!" horiz-adv-x="278" d="M63 65q0 31 23.5 55t55.5 24q30 0 53.5 -24t23.5 -55t-23.5 -54t-55.5 -23q-31 0 -54 23t-23 54zM68 644l100 44h51q0 -41 -7 -96l-50 -372l-38 -21l-5 8l-47 358q-3 25 -4 79z" />
<glyph unicode="&#x22;" horiz-adv-x="402" d="M22 624q0 27 21 49t47 22t47 -22t21 -49q0 -6 -1 -9l-44 -239h-46l-44 239q-1 4 -1 9zM244 624q0 27 21 49t47 22t47 -22t21 -49q0 -6 -1 -9l-44 -239h-46l-44 239q-1 4 -1 9z" />
<glyph unicode="#" d="M4 215v75h115l16 106h-103v75h114l30 202h75l-30 -202h107l29 202h75l-29 -202h93v-75h-104l-16 -106h94v-75h-105l-32 -215h-75l32 215h-108l-32 -215h-75l32 215h-103zM194 290h107l16 106h-107z" />
<glyph unicode="$" d="M28 462q0 94 60 147q45 40 133 59l-2 53h50l-2 -53q92 -1 165 -33l2 -7q-14 -49 -14 -140h-39q0 80 -15 91q-42 33 -99 35v-212q68 -13 103.5 -27t58.5 -38q43 -44 43 -123q0 -62 -27.5 -113t-76.5 -82q-38 -23 -101 -32l2 -101h-51l3 97q-112 4 -188 40l-3 9q6 58 9 149 h41v-40q0 -44 29 -66q48 -34 112 -38v240q-61 8 -94 20.5t-55 34.5q-44 43 -44 130zM130 505q0 -82 91 -97v206q-39 -3 -65 -34t-26 -75zM267 40q98 29 98 121q0 89 -98 106v-227z" />
<glyph unicode="%" horiz-adv-x="889" d="M61 535q0 73 46 119t119 46q69 0 115 -47t46 -117t-46.5 -117t-116.5 -47q-69 0 -116 47t-47 116zM161 539q0 -135 63 -135t63 132t-62 132q-64 0 -64 -129zM234 -9l366 723h49l-366 -723h-49zM502 163q0 73 46 119t119 46q69 0 115 -47t46 -117t-46.5 -117t-116.5 -47 q-69 0 -116 47t-47 116zM602 167q0 -135 63 -135t63 132t-62 132q-64 0 -64 -129z" />
<glyph unicode="&#x26;" horiz-adv-x="833" d="M52 176q0 64 34.5 108.5t120.5 88.5q-33 83 -33 130q0 29 11 51.5t40 53.5l35 38q36 38 102 38q52 0 83.5 -28.5t31.5 -75.5q0 -52 -34.5 -94.5t-123.5 -100.5q86 -129 206 -227q32 49 32 92q0 35 -20 78h-90q24 44 29 66l167 -5q53 0 145 6l3 -9q-15 -34 -20 -70 q-70 7 -141 7q3 -24 3 -37q0 -67 -65 -153q79 -49 151 -49q7 0 13 1t10 2.5t11 5t9 5t10 7t10 6.5l17 11l14 -32q-64 -54 -93 -99l-66 -3q-90 0 -171 65q-95 -70 -201 -70q-101 0 -165.5 54t-64.5 139zM171 233q0 -72 53.5 -126t125.5 -54q48 0 91 30q-73 63 -122.5 120 t-96.5 133q-29 -28 -40 -50t-11 -53zM265 544q0 -42 34 -118q91 61 91 131q0 29 -16.5 47t-42.5 18q-32 0 -49 -20.5t-17 -57.5z" />
<glyph unicode="'" horiz-adv-x="227" d="M45 624q0 27 21 49t47 22t47 -22t21 -49q0 -6 -1 -9l-44 -239h-46l-44 239q-1 4 -1 9z" />
<glyph unicode="(" horiz-adv-x="333" d="M65 307q0 113 39 204q26 63 63 107.5t112 104.5l26 -22q-33 -40 -49 -69t-30 -70q-28 -89 -28 -254q0 -153 21 -229.5t86 -158.5l-24 -24q-75 57 -112 100.5t-64 106.5q-40 90 -40 204z" />
<glyph unicode=")" horiz-adv-x="333" d="M28 -80q65 83 86 158.5t21 229.5q0 172 -31 262q-22 63 -76 131l26 22q75 -60 112 -105t63 -107q39 -91 39 -204q0 -114 -40 -204q-27 -63 -64 -106.5t-112 -100.5z" />
<glyph unicode="*" horiz-adv-x="444" d="M44 457l4 7q66 17 137 53q-50 34 -138 59l-3 7q29 45 44 77h16q50 -58 102 -114q13 66 13 142l8 7q41 -15 92 -22l5 -14q-39 -39 -82 -127q15 3 45 8.5t54 10.5t42 12l6 -3q-1 -9 -1 -20q0 -26 11 -67l-9 -11q-63 25 -154 34q45 -78 80 -118l-2 -12q-35 -7 -85 -34l-15 7 q0 76 -11 145q-54 -39 -101 -105l-19 8q-15 42 -39 70z" />
<glyph unicode="+" horiz-adv-x="606" d="M46 207v86h214v214h86v-214h214v-86h-214v-214h-86v214h-214z" />
<glyph unicode="," horiz-adv-x="250" d="M-6 -153q69 139 82 256q80 21 134 38l17 -16q-45 -98 -147 -261l-71 -30z" />
<glyph unicode="-" horiz-adv-x="333" d="M16 203q25 72 34 102h258l9 -10q-24 -53 -32 -100h-261z" />
<glyph unicode="." horiz-adv-x="250" d="M47 65q0 31 23.5 55t55.5 24q30 0 53.5 -24t23.5 -55t-23.5 -54t-55.5 -23q-31 0 -54 23t-23 54z" />
<glyph unicode="/" horiz-adv-x="296" d="M-9 -17l224 737h90l-224 -737h-90z" />
<glyph unicode="0" d="M33 302q0 176 48 259q56 99 185 99q112 0 161 -87q41 -72 41 -225q0 -189 -54.5 -277t-171.5 -88q-110 0 -159.5 76t-49.5 243zM153 372q0 -218 32 -287q24 -52 70 -52q45 0 69 56.5t24 162.5q0 101 -9.5 187.5t-24.5 118.5q-24 52 -69 52q-43 0 -65 -40 q-27 -50 -27 -198z" />
<glyph unicode="1" d="M35 569q99 22 299 101l12 -10q-10 -140 -10 -254v-322q0 -44 57 -47l62 -3v-37q-89 3 -177 3q-101 0 -203 -3v37l72 3q57 3 57 47v443q0 34 -5 37q-3 3 -10 0l-140 -65q-14 36 -14 70z" />
<glyph unicode="2" d="M25 -3v51l167 166q117 117 117 229q0 51 -29.5 81.5t-78.5 30.5q-33 0 -62 -16.5t-35 -38.5l-18 -68l-37 3l18 165q80 60 161 60q93 0 153 -48.5t60 -124.5q0 -101 -103 -202l-174 -171l2 -8l302 11l4 -5q-3 -40 -3 -62q0 -29 2 -53q-115 3 -230 3q-108 0 -216 -3z" />
<glyph unicode="3" d="M22 156l34 9q28 -63 59 -91q41 -35 95 -35q55 0 89.5 37t34.5 96q0 56 -34.5 90t-91.5 34q-34 0 -61 -8l-7 5l19 74h35q51 0 82 28.5t31 76.5q0 41 -27.5 65.5t-74.5 24.5q-89 0 -117 -101h-35l31 154q79 45 153 45q79 0 130 -40t51 -101q0 -88 -112 -146q59 -7 91 -27 q61 -41 61 -121q0 -101 -84 -171.5t-203 -70.5q-68 0 -124 24q-21 128 -25 149z" />
<glyph unicode="4" d="M12 204q81 201 245 441l122 27l7 -12l-6 -288v-125h88l1 -3v-79h-89v-54q0 -69 57 -74l36 -3v-37q-77 3 -154 3q-89 0 -177 -3v37l64 3q57 3 57 74v54h-244zM82 247h181v332q-14 -23 -25 -39t-20 -31t-30 -53l-62 -116q-13 -24 -44 -93z" />
<glyph unicode="5" d="M42 139l30 18q53 -116 155 -116q58 0 92.5 37t34.5 99q0 63 -36 100.5t-97 37.5q-65 0 -112 -40l-19 11q6 95 6 124v102q0 50 -6 136l7 8q104 -6 170 -6l177 6l4 -8q-7 -31 -7 -56q0 -26 1 -42l-6 -11q-87 3 -143 3l-144 -3l-4 -155q75 34 130 34q91 0 144 -49t53 -132 q0 -106 -83.5 -180t-202.5 -74q-62 0 -113 22q-7 35 -31 134z" />
<glyph unicode="6" d="M37 264q0 211 149 326q49 38 95 53.5t115 16.5l39 -27l-15 -16q-9 1 -21 1q-54 0 -101 -24.5t-77 -69.5q-23 -35 -35 -79t-18 -119q36 46 69 64.5t77 18.5q71 0 113 -51t42 -137q0 -106 -60 -172t-157 -66q-109 0 -162 76.5t-53 204.5zM165 198q0 -76 26.5 -120.5 t71.5 -44.5q42 0 65 36.5t23 101.5q0 68 -26.5 110t-70.5 42q-89 0 -89 -125z" />
<glyph unicode="7" d="M46 648l10 8l99 -2q120 -4 197 -4l141 3v-45q-37 -59 -93 -172l-110 -224q-20 -41 -47.5 -109.5t-38.5 -105.5q-27 3 -55 3t-55 -3l-6 11l300 518l-4 6h-225q-36 0 -47.5 -9.5t-15.5 -42.5l-8 -64h-39l1 90z" />
<glyph unicode="8" d="M34 155q0 106 117 165q-54 32 -77 67.5t-23 88.5q0 83 57 133.5t152 50.5q81 0 129 -39t48 -104q0 -42 -21 -74t-73 -67q53 -22 81 -54q43 -49 43 -119q0 -94 -66.5 -157t-166.5 -63q-88 0 -144 48t-56 124zM123 171q0 -59 35.5 -97.5t89.5 -38.5q47 0 78 33t31 82 q0 43 -24 71.5t-80 53.5l-61 27q-39 -35 -54 -63t-15 -68zM154 519q0 -36 22 -60.5t74 -46.5l44 -19q32 28 45.5 52.5t13.5 55.5q0 48 -28.5 77.5t-75.5 29.5q-43 0 -69 -24.5t-26 -64.5z" />
<glyph unicode="9" d="M31 427q0 108 58 170.5t159 62.5q105 0 160 -69.5t55 -200.5q0 -132 -58.5 -233t-161.5 -146q-53 -24 -138 -28l-38 29l9 18q21 -3 31 -3q51 0 102 28q72 39 101 138q13 41 21 122l-63 -55q-28 -24 -73 -24q-79 0 -121.5 49.5t-42.5 141.5zM149 476q0 -71 27 -112t74 -41 q86 0 86 121q0 79 -24.5 121.5t-70.5 42.5q-43 0 -67.5 -35t-24.5 -97z" />
<glyph unicode=":" horiz-adv-x="250" d="M47 65q0 31 23.5 55t55.5 24q30 0 53.5 -24t23.5 -55t-23.5 -54t-55.5 -23q-31 0 -54 23t-23 54zM47 375q0 31 23.5 55t55.5 24q30 0 53.5 -24t23.5 -55t-23.5 -54t-55.5 -23q-31 0 -54 23t-23 54z" />
<glyph unicode=";" horiz-adv-x="250" d="M-6 -153q69 139 82 256q80 21 134 38l17 -16q-45 -98 -147 -261l-71 -30zM70 375q0 31 24 55t55 24q30 0 53.5 -24t23.5 -55t-23.5 -54t-55.5 -23q-31 0 -54 23t-23 54z" />
<glyph unicode="&#x3c;" horiz-adv-x="606" d="M73 211v78l441 213v-96l-323 -156l323 -156v-96z" />
<glyph unicode="=" horiz-adv-x="606" d="M46 122v86h514v-86h-514zM46 292v86h514v-86h-514z" />
<glyph unicode="&#x3e;" horiz-adv-x="606" d="M73 -2v96l323 156l-323 156v96l441 -213v-78z" />
<glyph unicode="?" horiz-adv-x="444" d="M43 506q28 85 32 133q71 48 150 48q85 0 135.5 -42.5t50.5 -114.5q0 -42 -15.5 -71.5t-55.5 -62.5l-77 -64q-62 -51 -62 -91q0 -19 10 -39l-34 -14q-26 33 -26 74q0 47 63 124q63 75 63 122q0 35 -27.5 59t-68.5 24q-61 0 -72 -23l-31 -71zM116 64q0 32 24 56t55 24 q30 0 53.5 -24t23.5 -55t-23.5 -54t-54.5 -23q-32 0 -55 22.5t-23 53.5z" />
<glyph unicode="@" horiz-adv-x="747" d="M42 329q0 148 101 250t248 102q132 0 222.5 -81.5t90.5 -200.5q0 -110 -73 -186q-34 -34 -75 -55t-75 -21q-60 0 -69 82q-33 -45 -57.5 -60.5t-60.5 -15.5q-55 0 -89.5 37.5t-34.5 97.5q0 88 62 155.5t144 67.5q66 0 81 -72l16 64h94l-74 -274q-13 -49 15 -49q34 0 80 55 q65 78 65 178q0 94 -74 158t-183 64q-128 0 -213 -82.5t-85 -207.5q0 -126 86.5 -208.5t218.5 -82.5q59 0 107 22q39 17 65 39.5t60 67.5h64q-37 -64 -76 -98q-99 -87 -231 -87q-148 0 -249 98.5t-101 242.5zM265 242q0 -31 13.5 -50.5t35.5 -19.5q50 0 87 81t37 150 q0 29 -12.5 48t-33.5 20q-43 3 -85 -72.5t-42 -156.5z" />
<glyph unicode="A" horiz-adv-x="778" d="M24 -3v37l30 3q33 3 56 60l181 438l57 151h71l259 -605q17 -39 55 -44l24 -3v-37q-79 3 -158 3q-75 0 -152 -3v37l53 3q18 1 19.5 22t-5.5 33l-45 114h-251l-42 -112q-8 -16 -2.5 -36t26.5 -21l50 -3v-37q-57 3 -113 3t-113 -3zM242 262h204l-104 254z" />
<glyph unicode="B" horiz-adv-x="667" d="M39 644v37q84 -3 168 -3q32 0 96 1.5t96 1.5q189 0 189 -135q0 -61 -38 -96q-23 -21 -51.5 -35.5t-92.5 -37.5q103 -6 150 -39q55 -39 55 -122q0 -93 -84 -156t-187 -63q-70 3 -142 3q-63 0 -126 -3v23l32 18q20 11 20 57v448q0 66 -7 80.5t-41 17.5zM265 56q23 -4 43 -4 q80 0 116.5 36t36.5 114q0 77 -39.5 111.5t-126.5 34.5h-30v-292zM265 400h30q76 0 110.5 29.5t34.5 94.5q0 56 -28 81.5t-89 25.5q-26 0 -58 -4v-227z" />
<glyph unicode="C" horiz-adv-x="722" d="M44 347q0 161 110.5 254.5t300.5 93.5q65 0 115.5 -10t118.5 -37l6 -11q-11 -45 -23 -153h-39l-5 86q-41 38 -81 53.5t-97 15.5q-119 0 -187.5 -74.5t-68.5 -203.5q0 -142 79.5 -227.5t211.5 -85.5q97 0 195 51l12 -12l-22 -49q-55 -31 -105.5 -43t-119.5 -12 q-185 0 -293 98t-108 266z" />
<glyph unicode="D" horiz-adv-x="833" d="M35 644v37q81 -3 162 -3q40 0 119.5 1.5t119.5 1.5q101 0 165 -19.5t108 -63.5q77 -75 77 -222q0 -162 -104 -263q-118 -116 -303 -116q-26 0 -78 1.5t-78 1.5q-77 0 -155 -3v23l32 18q20 11 20 57v448q0 66 -7 80.5t-41 17.5zM261 57q31 -5 68 -5q162 0 234 71 q73 73 73 225q0 146 -66 211q-74 72 -246 72q-31 0 -63 -4v-570z" />
<glyph unicode="E" horiz-adv-x="611" d="M39 644v37q94 -3 190 -3q39 0 118 1.5t118 1.5q40 0 95 -3l6 -7l-14 -142h-36l-8 75q-2 19 -98 19l-145 -3v-240q20 -2 67 -2h66q31 0 43 4.5t14 16.5l6 57h40q-3 -54 -3 -107q0 -54 3 -108h-40l-6 50q-4 37 -57 37h-66q-25 0 -67 -3v-267l149 -3q34 0 66.5 5.5 t34.5 11.5l23 94h39l-11 -158l-5 -8q-57 -3 -140 -3q-37 0 -113 1.5t-113 1.5q-61 0 -123 -3v23l32 18q20 11 20 57v448q0 66 -7 80.5t-41 17.5z" />
<glyph unicode="F" horiz-adv-x="556" d="M28 -3v40l37 3q35 3 41.5 15.5t6.5 79.5v408q0 66 -7 80.5t-41 17.5l-37 3v37q88 -3 178 -3q38 0 116 1.5t116 1.5q57 0 95 -3l6 -7l-14 -142h-36l-8 75q-2 19 -111 19l-116 -3v-243q20 -2 67 -2h51q31 0 43 4.5t14 16.5l6 53h40q-3 -51 -3 -103q0 -54 3 -108h-40l-6 50 q-4 37 -57 37h-51q-25 0 -67 -3v-187q0 -66 7 -79.5t41 -15.5l47 -3v-40q-83 3 -166 3q-77 0 -155 -3z" />
<glyph unicode="G" horiz-adv-x="833" d="M47 346q0 162 111 255.5t303 93.5q135 0 261 -47l6 -11q-11 -45 -23 -153h-39l-5 86q-72 69 -205 69q-122 0 -190.5 -74.5t-68.5 -206.5q0 -143 74 -231t195 -88q60 0 127 25v132q0 19 -12.5 27t-44.5 10l-53 2v41q72 -3 143 -3q75 0 150 3v-34q-28 -6 -34.5 -12 t-6.5 -24v-163q-90 -34 -155.5 -47t-141.5 -13q-178 0 -284.5 99t-106.5 264z" />
<glyph unicode="H" horiz-adv-x="833" d="M36 -3v40l37 3q35 3 41.5 15.5t6.5 79.5v408q0 67 -6.5 79.5t-41.5 15.5l-37 3v40q78 -3 155 -3q78 0 156 3v-40l-37 -3q-35 -3 -41.5 -15.5t-6.5 -79.5v-158q23 -2 81 -2h146q57 0 81 2v158q0 67 -6.5 79.5t-41.5 15.5l-37 3v40q78 -3 155 -3q78 0 156 3v-40l-37 -3 q-35 -3 -41.5 -15.5t-6.5 -79.5v-408q0 -67 6.5 -79.5t41.5 -15.5l37 -3v-40q-78 3 -156 3q-77 0 -155 -3v40l37 3q35 3 41.5 15.5t6.5 79.5v190l-81 2h-146l-81 -2v-190q0 -67 6.5 -79.5t41.5 -15.5l37 -3v-40q-78 3 -156 3q-77 0 -155 -3z" />
<glyph unicode="I" horiz-adv-x="389" d="M39 -3v40l37 3q35 3 41.5 15.5t6.5 79.5v408q0 67 -6.5 79.5t-41.5 15.5l-37 3v40q78 -3 155 -3q78 0 156 3v-40l-37 -3q-35 -3 -41.5 -15.5t-6.5 -79.5v-408q0 -67 6.5 -79.5t41.5 -15.5l37 -3v-40q-78 3 -156 3q-77 0 -155 -3z" />
<glyph unicode="J" horiz-adv-x="389" d="M-11 -119l11 6q1 -1 4.5 -3t6.5 -5q35 -27 58 -27q30 0 42.5 29.5t12.5 100.5v561q0 67 -6.5 79.5t-41.5 15.5l-37 3v40q78 -3 155 -3q78 0 156 3v-40l-37 -3q-35 -3 -41.5 -15.5t-6.5 -79.5v-406q0 -78 -5.5 -117t-22.5 -75q-32 -67 -94.5 -112.5t-123.5 -45.5 q-14 0 -30 5v89z" />
<glyph unicode="K" horiz-adv-x="778" d="M39 -3v40l37 3q35 3 41.5 15.5t6.5 79.5v408q0 67 -6.5 79.5t-41.5 15.5l-37 3v40q78 -3 155 -3q78 0 156 3v-40l-37 -3q-35 -3 -41.5 -15.5t-6.5 -79.5v-200l197 193q94 94 94 120v25q45 -3 91 -3t91 3v-39q-47 -4 -69.5 -11t-40.5 -23l-222 -207l266 -313 q42 -49 91 -50v-41q-51 3 -101 3q-51 0 -102 -3l-208 249q-40 49 -53 61.5t-34 24.5v-197q0 -67 6.5 -79.5t41.5 -15.5l37 -3v-40q-78 3 -156 3q-77 0 -155 -3z" />
<glyph unicode="L" horiz-adv-x="611" d="M39 641v40q78 -3 155 -3q78 0 156 3v-40l-37 -3q-35 -3 -41.5 -15.5t-6.5 -79.5v-485l153 -3q32 0 64 5.5t33 11.5l23 102h39l-11 -166l-5 -8q-57 -3 -140 -3q-37 0 -113 1.5t-113 1.5q-61 0 -123 -3v23l32 18q20 11 20 57v448q0 67 -6.5 79.5t-41.5 15.5z" />
<glyph unicode="M" horiz-adv-x="1000" d="M32 -3v37l37 3q15 1 22.5 3.5t13.5 7t8 16.5t3 27t1 44v408q0 29 -1 44t-3 27t-8 16.5t-13.5 7t-22.5 3.5l-37 3v37q60 -3 120 -3t120 3q38 -84 233 -491l183 378l49 113q57 -3 115 -3t116 3v-37l-37 -3q-34 -3 -41 -17.5t-7 -80.5v-408q0 -67 6.5 -79.5t41.5 -15.5 l37 -3v-40q-78 3 -156 3q-77 0 -155 -3v40l37 3q35 3 41.5 15.5t6.5 79.5v416l-206 -429q-36 -74 -60 -132h-34q-19 47 -36 83l-230 479v-417q0 -66 7 -80.5t41 -17.5l37 -3v-37q-57 3 -114 3q-58 0 -115 -3z" />
<glyph unicode="N" horiz-adv-x="833" d="M35 -3v37l37 3q34 3 41 17.5t7 80.5v408q0 66 -7 80.5t-41 17.5l-37 3v37q60 -3 120 -3q42 0 84 3q83 -110 103 -133l312 -364v359q0 66 -7 80.5t-41 17.5l-37 3v37q57 -3 115 -3q57 0 114 3v-37l-37 -3q-34 -3 -41 -17.5t-7 -80.5v-454l3 -101l-7 -4l-82 13 q-69 77 -142.5 164t-166.5 200t-139 167v-393q0 -66 7 -80.5t41 -17.5l37 -3v-37q-57 3 -114 3q-58 0 -115 -3z" />
<glyph unicode="O" horiz-adv-x="833" d="M47 332q0 172 101 267.5t282 95.5q169 0 263 -92t94 -257q0 -171 -100.5 -267t-279.5 -96q-172 0 -266 91t-94 258zM197 355q0 -181 85 -264q52 -52 132 -52q110 0 166.5 72.5t56.5 213.5q0 179 -86 263q-53 51 -130 51q-115 0 -169.5 -75t-54.5 -209z" />
<glyph unicode="P" horiz-adv-x="611" d="M39 -3v40l37 3q35 3 41.5 15.5t6.5 79.5v408q0 66 -7 80.5t-41 17.5l-37 3v37q87 -3 173 -3q32 0 96.5 1.5t96.5 1.5q71 0 130 -40t59 -110q0 -91 -64 -151.5t-161 -60.5q-14 0 -58 7v39h36q47 0 75 36t28 96q0 134 -125 134q-37 0 -60 -9v-487q0 -66 7 -79.5t41 -15.5 l47 -3v-40q-82 3 -165 3q-78 0 -156 -3z" />
<glyph unicode="Q" horiz-adv-x="833" d="M47 331q0 172 100.5 268t279.5 96q172 0 266 -91t94 -258q0 -195 -132 -292q-92 -69 -260 -69q-8 -1 -21 -1q67 -14 100 -26l120 -42q63 -22 107 -22q15 0 69 19l11 4v-37l-103 -64q-35 0 -72 10l-199 54q-70 19 -99 19q-32 0 -97 -45l-11 31q94 75 161 100 q-115 14 -179 56q-135 89 -135 290zM197 355q0 -181 85 -264q52 -52 132 -52q110 0 166.5 72.5t56.5 213.5q0 179 -86 263q-53 51 -130 51q-115 0 -169.5 -75t-54.5 -209z" />
<glyph unicode="R" horiz-adv-x="722" d="M39 -3v40l37 3q35 3 41.5 15.5t6.5 79.5v408q0 66 -7 80.5t-41 17.5l-37 3v37q89 -3 178 -3q33 0 99.5 1.5t99.5 1.5q190 0 190 -147q0 -61 -43 -110q-37 -40 -106 -68l181 -274q16 -24 29 -31.5t41 -13.5v-40q-48 3 -97 3q-45 0 -90 -3l-210 342v23q55 0 87 19 q66 39 66 122q0 61 -36.5 94.5t-103.5 33.5q-38 0 -59 -9v-487q0 -67 6.5 -79.5t41.5 -15.5l37 -3v-40q-78 3 -156 3q-77 0 -155 -3z" />
<glyph unicode="S" horiz-adv-x="611" d="M57 29q15 78 15 173h40l7 -88q24 -35 68.5 -56t95.5 -21q65 0 107.5 37t42.5 92q0 71 -83 96l-140 42q-71 21 -108.5 66.5t-37.5 109.5q0 101 70 158t195 57q94 0 185 -34l5 -12q-14 -45 -14 -142h-41l-6 82q-56 55 -136 55q-60 0 -97 -32.5t-37 -84.5q0 -38 25 -62 t81 -39l114 -30q151 -40 151 -176q0 -109 -80 -173t-214 -64q-105 0 -208 46z" />
<glyph unicode="T" horiz-adv-x="667" d="M17 676l6 5q156 -3 311 -3q156 0 310 3l6 -5q-10 -63 -13 -159h-40l-5 69q-3 9 -5.5 14.5t-6.5 9.5t-6.5 6t-9 2.5t-10 0.5h-15h-18.5h-117v-484q0 -67 6.5 -79.5t41.5 -15.5l37 -3v-40q-78 3 -156 3q-77 0 -155 -3v40l37 3q35 3 41.5 15.5t6.5 79.5v484h-117 q-3 0 -15.5 0.5t-16.5 0t-13.5 -2t-13 -5t-7.5 -10t-5 -16.5l-5 -69h-40q-4 106 -13 159z" />
<glyph unicode="U" horiz-adv-x="778" d="M26 644v37q78 -3 155 -3q78 0 156 3v-37l-37 -3q-34 -3 -41 -17.5t-7 -80.5v-248q0 -78 8 -118.5t28 -64.5q40 -47 140 -47q99 0 141 43q26 26 36.5 70.5t10.5 123.5v241q0 66 -7 80.5t-41 17.5l-37 3v37q57 -3 115 -3q57 0 114 3v-37l-37 -3q-34 -3 -41 -17.5t-7 -80.5 v-292q0 -136 -70 -202t-214 -66q-129 0 -204.5 52.5t-75.5 141.5v366q0 66 -7 80.5t-41 17.5z" />
<glyph unicode="V" horiz-adv-x="778" d="M20 644v37q80 -3 158 -3q81 0 162 3v-37l-50 -3q-10 -1 -18 -6.5t-8 -12.5q0 -21 21 -72l157 -387l142 353q31 78 31 99q0 23 -37 26l-46 3v37q57 -3 115 -3q57 0 116 3v-37l-32 -3q-29 -3 -47 -47l-208 -498q-8 -18 -21 -53.5t-17 -45.5h-76l-239 572q-16 38 -29.5 54.5 t-32.5 17.5z" />
<glyph unicode="W" horiz-adv-x="1000" d="M17 644v37q78 -3 156 -3q67 0 134 3v-37l-42 -3q-12 -1 -21 -8.5t-9 -16.5q0 -12 3 -26l82 -383l150 355q20 48 31 74.5t20 49.5h45q32 -92 49 -133l137 -343l97 378q4 15 4 30q0 21 -35 23l-46 3v37q53 -3 106 -3q54 0 110 3v-37l-33 -3q-24 -3 -43 -69l-122 -432 l-33 -143h-73q-4 12 -17 48.5t-21 56.5l-149 375l-155 -355l-47 -125h-70l-139 602q-8 39 -37 42z" />
<glyph unicode="X" horiz-adv-x="667" d="M17 0v34l31 3q20 2 33 18l199 261l-94 166q-43 76 -86 123q-18 18 -41 18q-13 0 -32 -6l-5 41l183 37q37 -28 73 -91l95 -169l165 243h111v-34l-28 -3q-15 -1 -23.5 -8t-24.5 -28l-170 -224q74 -128 138 -239l25 -43l-3 4q21 -37 33.5 -50.5t28.5 -15.5l25 -3v-37 q-48 3 -95 3q-48 0 -96 -3l-149 266l-140 -201q-14 -20 -36 -62h-117z" />
<glyph unicode="Y" horiz-adv-x="667" d="M15 622v37l159 36q35 -20 59.5 -49.5t54.5 -86.5l107 -203l188 322h77v-19l-176 -261q-26 -39 -53 -100v-163q0 -67 6.5 -79.5t41.5 -15.5l37 -3v-40q-78 3 -156 3q-77 0 -155 -3v40l37 3q35 3 41.5 15.5t6.5 79.5v139q-23 51 -44 85l-101 163q-39 63 -64.5 81.5 t-65.5 18.5z" />
<glyph unicode="Z" horiz-adv-x="667" d="M24 -3v38q59 74 104 139l306 446h-222q-53 0 -68 -7.5t-19 -38.5l-8 -55h-37v162q136 -3 272 -3t271 3v-35q-49 -60 -83 -110l-325 -479h276q74 0 81 39l15 78h40q-14 -80 -16 -177q-143 3 -284 3q-151 0 -303 -3z" />
<glyph unicode="[" horiz-adv-x="333" d="M73 -104q6 115 6 292v219q0 84 -1.5 162.5t-3.5 114.5l-1 36q42 -2 69 -2l149 2v-38h-49q-37 0 -56 -22q-7 -9 -7 -99v-513q0 -81 5 -89q6 -11 22.5 -18t35.5 -7h49v-38q-91 2 -149 2z" />
<glyph unicode="\" horiz-adv-x="606" d="M72 720h90l372 -720h-90z" />
<glyph unicode="]" horiz-adv-x="333" d="M42 -66h49q19 0 35.5 7t22.5 18q5 8 5 89v513q0 90 -7 99q-19 22 -56 22h-49v38q91 -2 149 -2l69 2q-6 -124 -6 -313v-219q0 -79 1.5 -152t2.5 -106l2 -34q-42 2 -69 2l-149 -2v38z" />
<glyph unicode="^" horiz-adv-x="606" d="M52 275l206 403h90l206 -403h-95l-156 294l-156 -294h-95z" />
<glyph unicode="_" d="M0 -75h500v-50h-500v50z" />
<glyph unicode="`" horiz-adv-x="333" d="M17 647q0 20 12 32t32 12q32 0 65 -37l129 -148h-56q-119 73 -135 84l-4 2q-24 15 -33.5 27t-9.5 28z" />
<glyph unicode="a" d="M40 107q0 64 38 97t133 53l88 18q-2 61 -27 89.5t-75 28.5q-20 0 -38 -4.5t-20 -9.5l-22 -50l-30 7v69l53 32q56 34 120 34q76 0 118 -37.5t42 -103.5v-232q0 -35 5.5 -47.5t22.5 -13.5l30 -3v-37q-44 3 -88 3q-46 0 -91 -3l-5 8l5 62l-93 -72q-15 -12 -49 -12 q-57 0 -87 31.5t-30 92.5zM162 133q0 -29 13.5 -46t37.5 -17q22 0 46.5 12.5t39.5 32.5v118l-45 -12q-53 -14 -72.5 -32.5t-19.5 -55.5z" />
<glyph unicode="b" horiz-adv-x="611" d="M10 641v36q80 8 121 21l72 22l8 -6v-331l61 49q49 39 103 39q79 0 130 -53.5t51 -136.5q0 -58 -22.5 -111t-60.5 -84q-43 -36 -114 -78q-43 -25 -87 -25q-63 0 -131 37l-39 -32l-22 8q9 80 9 166v406q0 44 -4.5 56.5t-21.5 13.5zM211 106q39 -55 101 -55q55 0 86.5 46 t31.5 124q0 75 -32.5 117.5t-90.5 42.5q-63 0 -96 -50v-225z" />
<glyph unicode="c" horiz-adv-x="444" d="M37 229q0 65 27 107.5t94 82.5l52 31q36 21 90 21q46 0 103 -20l7 -13q-13 -61 -20 -141h-36l-7 60q-2 17 -28 30t-60 13q-98 0 -98 -139q0 -96 42.5 -151.5t116.5 -55.5q39 0 85 19l9 -10l-21 -46q-64 -34 -134 -34q-108 0 -165 63.5t-57 182.5z" />
<glyph unicode="d" horiz-adv-x="611" d="M42 217q0 126 84 181l72 47q41 26 88 26q37 0 80 -17l20 -8v122q0 44 -4.5 56.5t-21.5 13.5l-53 3v36q80 8 121 21l72 22l8 -6v-614q0 -40 6.5 -51t29.5 -13l33 -2v-37q-51 3 -101 3q-45 0 -90 -3l-5 8l5 75l-104 -85q-15 -12 -49 -12q-88 0 -139.5 63.5t-51.5 170.5z M168 255q0 -81 31.5 -129t84.5 -48q41 0 71.5 24t30.5 58v184q-48 63 -112 63q-106 0 -106 -152z" />
<glyph unicode="e" d="M42 226q0 138 95 194l47 28q39 23 87 23q87 0 138.5 -48t51.5 -128v-52q-81 -20 -158 -20h-131q3 -63 25 -100q19 -31 52.5 -50t71.5 -19q55 0 118 35l12 -15l-22 -48q-49 -25 -82 -34t-76 -9q-112 0 -170.5 62t-58.5 181zM166 276l32 -1q15 -1 25 -1t12.5 -0.5t4 -0.5h3 h7.5l84 3q0 74 -20 106.5t-63 32.5q-44 0 -64.5 -33t-20.5 -106z" />
<glyph unicode="f" horiz-adv-x="389" d="M34 -3v37l41 2q28 2 35 12.5t7 51.5v272l-79 -5v24q47 23 79 45v43q0 60 9.5 83.5t45.5 53.5l74 62q50 42 93 42q17 0 42 -6v-97l-16 -7q-39 24 -67 24q-34 0 -46.5 -19.5t-12.5 -72.5v-108q72 0 131 4l4 -8l-11 -58h-124v-272q0 -32 3 -46q5 -16 47 -18l45 -2v-37 q-80 3 -160 3q-70 0 -140 -3z" />
<glyph unicode="g" horiz-adv-x="556" d="M26 -124q0 46 26 62l81 48q-37 10 -52.5 25t-15.5 42q0 36 17 48l71 54q-45 15 -69 41q-37 40 -37 96q0 79 60.5 129t156.5 50q93 0 152 -43q16 -1 36 -1q31 0 82 5l-5 -64l-77 4q5 -24 5 -47q0 -72 -44 -116q-64 -64 -174 -64q-4 0 -40 2q-29 -17 -29 -39q0 -32 47 -30 l146 4h24q148 0 148 -124q0 -100 -81 -162t-212 -62q-99 0 -157.5 38.5t-58.5 103.5zM120 -112q0 -47 40.5 -75.5t107.5 -28.5t111.5 34.5t44.5 86.5q0 48 -30.5 64t-121.5 16q-79 0 -101 -11q-23 -11 -37 -34.5t-14 -51.5zM170 311q0 -56 22.5 -88t61.5 -32q80 0 80 108 q0 122 -82 122t-82 -110z" />
<glyph unicode="h" horiz-adv-x="611" d="M24 -3v37l35 2q23 2 29.5 13t6.5 51v468q0 44 -4.5 56.5t-21.5 13.5l-45 3v36q77 10 113 21l72 22l8 -6v-324l80 62q23 19 70 19q76 0 116 -42q35 -38 35 -143v-186q0 -40 6.5 -51t29.5 -13l33 -2v-37q-51 3 -101 3q-45 0 -90 -3v272q0 61 -22.5 88.5t-71.5 27.5 q-33 0 -59 -21t-26 -47v-217q0 -40 6.5 -51t29.5 -13l35 -2v-37q-68 3 -135 3q-65 0 -129 -3z" />
<glyph unicode="i" horiz-adv-x="333" d="M34 -3v37l35 2q23 2 29.5 13t6.5 51v219q0 44 -4.5 56.5t-21.5 13.5l-45 3v36l15 2q56 8 98 19l70 22l10 -6v-365q0 -40 6.5 -51t29.5 -13l35 -2v-37q-68 3 -135 3q-65 0 -129 -3zM99 600q0 27 20 46.5t48 19.5q27 0 46.5 -20t19.5 -47q0 -28 -19.5 -47.5t-47.5 -19.5 t-47.5 20t-19.5 48z" />
<glyph unicode="j" horiz-adv-x="333" d="M3 -229l4 6h23q40 0 57.5 43t17.5 142v357q0 44 -4.5 56.5t-21.5 13.5l-45 3v36l18 2q51 5 95 19l70 22l10 -6v-367q0 -115 -11.5 -176t-41.5 -105q-56 -83 -130 -83q-17 0 -31 2zM99 600q0 27 20 46.5t48 19.5q27 0 46.5 -20t19.5 -47q0 -28 -19.5 -47.5t-47.5 -19.5 t-47.5 20t-19.5 48z" />
<glyph unicode="k" horiz-adv-x="611" d="M21 641v36q80 8 121 21l72 22l8 -6v-465q73 63 106 97l107 113h130v-38h-31q-24 0 -48 -18q-28 -20 -63 -49.5t-56 -48.5l-21 -19l196 -220q26 -29 55 -32v-34h-172q-82 101 -154 182q-20 22 -39 44h-10v-126q0 -40 6.5 -51t29.5 -13l35 -2v-37q-67 3 -135 3 q-64 0 -129 -3v37l35 2q23 2 29.5 13t6.5 51v468q0 44 -4.5 56.5t-21.5 13.5z" />
<glyph unicode="l" horiz-adv-x="333" d="M24 641v36q80 8 121 21l72 22l8 -6v-614q0 -40 6.5 -51t29.5 -13l35 -2v-37q-68 3 -135 3q-65 0 -129 -3v37l35 2q23 2 29.5 13t6.5 51v468q0 44 -4.5 56.5t-21.5 13.5z" />
<glyph unicode="m" horiz-adv-x="889" d="M24 -3v37l35 2q23 2 29.5 13t6.5 51v219q0 44 -4.5 56.5t-21.5 13.5l-45 3v36q42 2 76 10t111 33l6 -6v-75l80 62q25 19 71 19q52 0 83.5 -19t48.5 -62l80 62q25 19 72 19q80 0 111.5 -40.5t31.5 -144.5v-186q0 -40 6.5 -51t29.5 -13l33 -2v-37q-50 3 -98 3q-46 0 -93 -3 v272q0 116 -86 116q-30 0 -55.5 -21.5t-25.5 -46.5v-217q0 -40 6.5 -51t29.5 -13l35 -2v-37q-66 3 -131 3q-64 0 -129 -3v37l31 2q24 1 30 12t6 52v169q0 116 -86 116q-30 0 -55.5 -21.5t-25.5 -46.5v-217q0 -41 6 -52t30 -12l27 -2v-37q-63 3 -127 3q-65 0 -129 -3z" />
<glyph unicode="n" horiz-adv-x="611" d="M24 -3v37l35 2q23 2 29.5 13t6.5 51v219q0 44 -4.5 56.5t-21.5 13.5l-45 3v36q42 2 76 10t111 33l6 -6v-75l80 62q23 19 70 19q76 0 116 -42q35 -38 35 -143v-186q0 -40 6.5 -51t29.5 -13l33 -2v-37q-51 3 -101 3q-45 0 -90 -3v273q0 60 -22.5 87.5t-71.5 27.5 q-33 0 -59 -21t-26 -47v-217q0 -40 6.5 -51t29.5 -13l35 -2v-37q-68 3 -135 3q-65 0 -129 -3z" />
<glyph unicode="o" horiz-adv-x="556" d="M40 224q0 119 64 183t183 64q111 0 170.5 -60.5t59.5 -174.5q0 -121 -65 -187t-185 -66q-109 0 -168 63t-59 178zM176 248q0 -217 109 -217q51 0 73.5 41t22.5 133q0 218 -106 218q-52 0 -75.5 -42t-23.5 -133z" />
<glyph unicode="p" horiz-adv-x="611" d="M29 -221l35 2q23 2 29.5 13t6.5 51v474q0 44 -4.5 56.5t-21.5 13.5l-45 3v36l11 1q58 6 102 20l70 22l10 -6v-82l61 49q49 39 103 39q78 0 129.5 -52.5t51.5 -132.5q0 -73 -31.5 -133.5t-87.5 -97.5q-91 -72 -137 -72q-29 0 -89 17v-155q0 -41 6.5 -52t29.5 -12l45 -2 v-37q-72 3 -145 3q-64 0 -129 -3v37zM222 106q39 -55 101 -55q55 0 86.5 46t31.5 124q0 75 -32.5 117.5t-90.5 42.5q-63 0 -96 -50v-225z" />
<glyph unicode="q" horiz-adv-x="611" d="M52 212q0 74 26 118t91 81q107 60 154 60q46 0 116 -34l22 -11l52 42l21 -14q-16 -79 -16 -130v-479q0 -40 6.5 -51t29.5 -13l35 -2v-37q-67 3 -135 3q-64 0 -129 -3v37l35 2q23 2 29.5 13t6.5 51v230l-96 -77q-18 -15 -60 -15q-87 0 -137.5 61.5t-50.5 167.5zM178 255 q0 -81 31.5 -129t84.5 -48q41 0 71.5 24t30.5 58v184q-48 63 -112 63q-106 0 -106 -152z" />
<glyph unicode="r" horiz-adv-x="389" d="M30 -3v37l35 2q23 2 29.5 13t6.5 51v219q0 44 -4.5 56.5t-21.5 13.5l-45 3v36q77 10 113 21l70 22l10 -6v-95l44 48q29 31 46.5 42t38.5 11q22 0 37 -6l-5 -129l-24 -10q-21 36 -57 36q-29 0 -54.5 -20.5t-25.5 -43.5v-198q0 -42 8 -52t40 -12l39 -2v-37q-75 3 -151 3 q-65 0 -129 -3z" />
<glyph unicode="s" horiz-adv-x="444" d="M39 11l7 141h39l5 -69q44 -52 112 -52q43 0 67.5 21t24.5 56q0 26 -14.5 40.5t-48.5 22.5l-86 21q-106 26 -106 125q0 75 53.5 114.5t154.5 39.5q70 0 123 -23l-8 -122h-36l-10 58q-2 15 -29 27t-58 12q-41 0 -64.5 -17.5t-23.5 -47.5q0 -24 12.5 -36.5t42.5 -19.5 l82 -18q68 -15 97.5 -45t29.5 -84q0 -77 -58 -124.5t-153 -47.5q-74 0 -155 28z" />
<glyph unicode="t" horiz-adv-x="333" d="M22 365v22l66 43v60q0 21 -4 92q78 29 122 50l14 -10q-12 -67 -12 -136v-58q57 0 114 6l-8 -65h-106v-238q0 -37 13.5 -51t48.5 -14q19 0 46 13l8 -19l-49 -59q-15 -18 -65 -18q-65 0 -94.5 30t-29.5 97v259z" />
<glyph unicode="u" horiz-adv-x="611" d="M25 392v36q75 10 113 21l70 22l10 -6v-261q0 -72 17.5 -101.5t60.5 -29.5q40 0 68 26.5t28 63.5v156q0 44 -4.5 56.5t-21.5 13.5l-45 3v36q76 10 113 21l70 22l10 -6v-365q0 -41 6 -52t30 -12l33 -2v-37q-51 3 -101 3q-47 0 -95 -3l5 83l-76 -74q-23 -23 -69 -23 q-73 0 -112 40.5t-39 116.5v179q0 44 -4.5 56.5t-21.5 13.5z" />
<glyph unicode="v" horiz-adv-x="556" d="M11 421v38q64 -3 130 -3q65 0 129 3v-38l-41 -2q-23 -2 -23 -17q0 -16 14 -51l88 -221q22 48 96 231q9 22 9 41q0 15 -23 17l-38 2v38q48 -3 97 -3q48 0 96 3v-38l-30 -5q-22 -4 -36 -34l-128 -288q-18 -40 -38 -97h-86l-143 360q-24 61 -48 62z" />
<glyph unicode="w" horiz-adv-x="833" d="M13 421v38q68 -3 136 -3q67 0 135 3v-38l-47 -2q-19 0 -19 -22q0 -11 2 -19l59 -227q43 93 144 320h50l138 -317q27 73 39 112l36 113q3 12 3 19q0 19 -29 21l-42 2v38q51 -3 101 -3t101 3v-38l-34 -2q-19 -1 -36 -47l-92 -260q-12 -36 -21 -64.5t-11 -39.5l-3 -11h-81 l-132 307q-58 -114 -79 -161t-58 -146h-79l-107 384q-6 20 -15 28.5t-26 9.5z" />
<glyph unicode="x" d="M20 439q82 15 146 32q30 -24 62 -77l52 -85l108 150h95v-37q-28 -1 -41.5 -8.5t-36.5 -34.5l-97 -114l89 -152q25 -43 43.5 -60t42.5 -19v-37q-39 3 -77 3q-39 0 -78 -3l-100 169q-70 -95 -116 -166h-91v34q44 3 69 36l110 140l-80 136q-20 33 -36 45.5t-41 12.5 q-10 0 -15 -1z" />
<glyph unicode="y" horiz-adv-x="556" d="M10 421v38q66 -3 133 -3q66 0 132 3v-38l-35 -2q-26 -2 -26 -23q0 -8 17 -53l84 -218l101 252q4 10 4 22q0 18 -27 20l-33 2v38q46 -3 93 -3t93 3v-38l-26 -5q-22 -5 -41 -47l-199 -463q-74 -172 -176 -172q-35 0 -73 17l18 95l11 4q33 -37 70 -37q26 0 50.5 24t41.5 67 l23 56l-158 404q-21 54 -42 55z" />
<glyph unicode="z" d="M16 -3v33q70 89 274 374h-118q-42 0 -56.5 -11.5t-19.5 -47.5l-3 -25h-38l3 134l7 3q119 -3 236 -3q77 0 153 3v-33l-268 -369h163q36 0 49.5 13t20.5 56l5 31h40q-12 -82 -12 -153l-5 -5q-137 3 -273 3q-78 0 -158 -3z" />
<glyph unicode="{" horiz-adv-x="310" d="M5 301v2q57 15 74 36t17 75v178q0 80 48 110q38 23 144 23v-2q-57 -16 -76 -39.5t-19 -77.5v-177q0 -61 -20.5 -87t-81.5 -40q61 -13 81.5 -40.5t20.5 -92.5v-167q0 -54 19 -77.5t76 -39.5v-2q-106 0 -144 23q-48 30 -48 110v174q0 54 -17 75t-74 36z" />
<glyph unicode="|" horiz-adv-x="606" d="M260 -104v824h86v-824h-86z" />
<glyph unicode="}" horiz-adv-x="310" d="M22 -115q57 16 76 39.5t19 77.5v167q0 66 20.5 92.5t81.5 40.5q-61 14 -81.5 40t-20.5 87v177q0 54 -19 77.5t-76 39.5v2q119 0 155 -31q37 -31 37 -102v-178q0 -54 17 -75t74 -36v-2q-57 -15 -74 -36t-17 -75v-174q0 -80 -48 -110q-38 -23 -144 -23v2z" />
<glyph unicode="~" horiz-adv-x="606" d="M51 216q35 60 68.5 86.5t73.5 26.5q33 0 109 -33q83 -36 109 -36q24 0 42 14.5t41 51.5l61 -39q-35 -60 -68.5 -86.5t-73.5 -26.5q-33 0 -109 33q-83 36 -109 36q-24 0 -42 -14.5t-41 -51.5z" />
<glyph unicode="&#xa1;" horiz-adv-x="278" d="M59 -234q0 41 7 96l50 372l38 21l5 -8l47 -358q3 -25 4 -79l-100 -44h-51zM59 389q0 31 23.5 54t55.5 23q31 0 54 -23t23 -54t-23.5 -55t-55.5 -24q-30 0 -53.5 24t-23.5 55z" />
<glyph unicode="&#xa2;" d="M73 214q0 77 29 129q15 27 64 58l52 33q65 40 118 42l26 78h41l-25 -81q42 -10 63 -20l5 -9q-13 -58 -18 -148h-38l-6 60q-1 10 -10.5 20t-20.5 13l-91 -302q39 -32 96 -32q43 0 83 20l9 -11l-21 -47l-4 -4q-66 -30 -126 -30q-6 0 -59 5l-10 1l-32 -95h-42l36 106 q-62 32 -90.5 82.5t-28.5 131.5zM196 263q0 -71 34 -139l83 276q-8 1 -21 1q-96 0 -96 -138z" />
<glyph unicode="&#xa3;" d="M-2 40l64 52q27 22 34.5 60t9.5 168h-90v43h90v43q0 82 55 144q45 52 116.5 89t126.5 37q43 0 76 -27l-10 -136h-31l-3 35q-2 28 -24 45t-57 17q-54 0 -79 -33.5t-32 -113.5l-8 -100h168v-43h-173q-27 -137 -114 -227q63 19 104 19q22 0 97 -11q60 -9 88 -9q43 0 50 30 l11 56h34l-10 -179q-43 -15 -83 -15q-67 0 -162 26q-80 22 -133 22q-21 0 -51 -25q-23 -20 -44 -26z" />
<glyph unicode="&#xa4;" d="M32 141l49 49q-42 53 -42 123q0 74 42 122l-49 49l47 47l48 -48q54 41 124 41q67 0 120 -40l48 49l49 -49l-46 -48q39 -51 39 -122q0 -69 -40 -125l46 -48l-45 -45l-47 49q-53 -43 -125 -43q-73 0 -125 42l-48 -48zM116 312q0 -55 40 -94.5t95 -39.5t94 40t39 96 q0 55 -39.5 94t-95.5 39q-54 0 -93.5 -40t-39.5 -95z" />
<glyph unicode="&#xa5;" d="M17 622v37l115 36q24 -19 41.5 -48t40.5 -88l80 -203l133 322h56v-19l-135 -277h118v-40h-134q-15 -33 -15 -58v-38h149v-40h-149v-71q0 -68 4.5 -80t30.5 -15l26 -3v-40q-54 3 -109 3q-58 0 -115 -3v40l26 3q26 3 30.5 15.5t4.5 79.5v71h-149v40h149v40q0 16 -19 48 q-4 6 -5 8h-125v40h108l-63 140q-27 60 -47 80.5t-47 19.5z" />
<glyph unicode="&#xa6;" horiz-adv-x="606" d="M260 -104v330h86v-330h-86zM260 390v330h86v-330h-86z" />
<glyph unicode="&#xa7;" d="M30 233q0 36 13 63t46 58l19 18q-47 41 -47 98q0 41 21.5 88.5t53.5 77.5q29 27 72 43t86 16q61 0 130 -33q-11 -51 -17 -147h-38q0 51 -7 80q-29 31 -101 31q-56 0 -93 -26.5t-37 -67.5q0 -36 26.5 -57t99.5 -43l67 -20q78 -20 112.5 -54.5t34.5 -96.5q0 -43 -15 -73.5 t-56 -72.5q55 -41 55 -104q0 -91 -74.5 -159.5t-172.5 -68.5q-50 0 -84.5 10t-74.5 35l14 155h39q-1 -9 -1 -20q0 -31 9 -64q51 -55 131 -55q53 0 93.5 32.5t40.5 75.5q0 33 -28 58q-27 23 -107 49l-61 20q-82 27 -115.5 61.5t-33.5 92.5zM104 280q0 -27 31 -50.5t100 -49.5 l133 -49q29 39 29 69q0 37 -26.5 61.5t-88.5 45.5l-143 48q-35 -42 -35 -75z" />
<glyph unicode="&#xa8;" horiz-adv-x="333" d="M-8 599q0 28 20 47.5t48 19.5q27 0 46.5 -20t19.5 -47q0 -28 -19.5 -47.5t-47.5 -19.5t-47.5 19.5t-19.5 47.5zM207 600q0 27 20 46.5t48 19.5q27 0 46.5 -20t19.5 -47q0 -28 -19.5 -47.5t-47.5 -19.5t-47.5 20t-19.5 48z" />
<glyph unicode="&#xa9;" horiz-adv-x="747" d="M21 337q0 146 103.5 250t249.5 104t250 -104t104 -250t-104 -249.5t-250 -103.5t-249.5 103.5t-103.5 249.5zM69 337q0 -127 89 -216t216 -89t216.5 89t89.5 216t-89.5 216.5t-216.5 89.5t-216 -89.5t-89 -216.5zM180 341q0 86 66 136t179 50q67 0 138 -25l5 -8 q-6 -21 -14 -85h-30l-3 47q-41 34 -98 34q-66 0 -103 -38t-37 -104q0 -72 43.5 -116t116.5 -44q57 0 113 28l11 -10l-15 -30q-59 -30 -132 -30q-111 0 -175.5 52.5t-64.5 142.5z" />
<glyph unicode="&#xaa;" horiz-adv-x="438" d="M77 288v48h284v-48h-284zM77 442q0 29 12.5 46t41.5 28q25 10 57 16l57 10q-1 28 -10 43q-7 12 -23 21t-29 8q-3 0 -6 -1l-36 -8l-14 -30l-22 4v39l77 37q12 5 33 5q52 0 80.5 -23t28.5 -65v-148q0 -23 18 -24l19 -2v-22q-9 0 -27.5 0.5t-29.5 0.5q-12 0 -30.5 -0.5 t-28.5 -0.5l-3 4l3 38l-60 -44q-11 -7 -31 -7q-77 0 -77 75zM156 457q0 -17 9 -27.5t24 -10.5q31 0 56 27v71l-29 -7q-34 -8 -47 -19.5t-13 -33.5z" />
<glyph unicode="&#xab;" d="M36 231v25q140 123 198 182l27 -22l-110 -173l110 -179l-27 -20q-122 125 -198 187zM238 231v25q140 123 198 182l27 -22l-110 -173l110 -179l-27 -20q-122 125 -198 187z" />
<glyph unicode="&#xac;" horiz-adv-x="606" d="M46 292v86h514v-213h-86v127h-428z" />
<glyph unicode="&#xad;" horiz-adv-x="333" d="M16 203q25 72 34 102h258l9 -10q-24 -53 -32 -100h-261z" />
<glyph unicode="&#xae;" horiz-adv-x="747" d="M21 337q0 146 103.5 250t249.5 104t250 -104t104 -250t-104 -249.5t-250 -103.5t-249.5 103.5t-103.5 249.5zM69 337q0 -127 89 -216t216 -89t216.5 89t89.5 216t-89.5 216.5t-216.5 89.5t-216 -89.5t-89 -216.5zM179 153v29l24 2q20 1 20 46v214q0 46 -20 47l-24 2v28 q53 -3 105 -3q19 0 57.5 1.5t57.5 1.5q47 0 82 -22t35 -60q0 -61 -84 -95l102 -141q15 -18 35 -21v-29q-38 2 -58 2q-19 0 -57 -2l-119 181v19q31 0 48 8q36 20 36 62q0 26 -22 44.5t-51 18.5q-18 0 -26 -3v-253q0 -45 20 -46l23 -2v-29q-62 2 -92 2t-92 -2z" />
<glyph unicode="&#xaf;" horiz-adv-x="333" d="M1 564v71h331v-71h-331z" />
<glyph unicode="&#xb0;" horiz-adv-x="400" d="M50 510q0 63 44 106.5t108 43.5q60 0 104 -44.5t44 -105.5q0 -62 -44 -106t-106 -44t-106 44t-44 106zM111 511q0 -37 26 -63.5t63 -26.5t63 26t26 63q0 36 -26.5 62.5t-62.5 26.5q-37 0 -63 -25.5t-26 -62.5z" />
<glyph unicode="&#xb1;" horiz-adv-x="606" d="M46 0v86h514v-86h-514zM46 293v86h214v214h86v-214h214v-86h-214v-130h-86v130h-214z" />
<glyph unicode="&#xb2;" horiz-adv-x="300" d="M12 259v35l101 99q69 68 69 133q0 28 -16.5 45t-44.5 17q-19 0 -35 -9t-20 -21l-12 -42l-28 2l11 102q51 37 100 37q57 0 94 -29.5t37 -75.5q0 -61 -63 -122l-103 -99l181 6l4 -6q-2 -20 -2 -37q0 -19 2 -35q-53 1 -83 1.5t-57 0.5q-9 0 -135 -2z" />
<glyph unicode="&#xb3;" horiz-adv-x="300" d="M9 359l26 6q19 -40 39.5 -57t51.5 -17t51 21t20 54q0 32 -19.5 51t-52.5 19q-18 0 -38 -6l-7 6l12 48h24q29 0 47 16t18 42q0 23 -15.5 36.5t-42.5 13.5q-51 0 -68 -59h-28l20 96q51 28 95 28q49 0 80.5 -24.5t31.5 -61.5q0 -52 -60 -85q84 -11 84 -89 q0 -61 -51.5 -103.5t-123.5 -42.5q-41 0 -78 15z" />
<glyph unicode="&#xb4;" horiz-adv-x="333" d="M78 506l129 148q33 37 65 37q20 0 32 -12t12 -32q0 -16 -9.5 -28t-33.5 -27q-2 -1 -3 -2t-2.5 -1.5t-9.5 -5.5t-20.5 -13t-39.5 -25t-64 -39h-56z" />
<glyph unicode="&#xb5;" horiz-adv-x="611" d="M25 392v36q74 9 113 21l70 22l10 -6v-261q0 -72 17.5 -101.5t60.5 -29.5q40 0 68 26.5t28 63.5v156q0 44 -4.5 56.5t-21.5 13.5l-45 3v36q75 10 113 21l70 22l10 -6v-365q0 -40 6.5 -51t29.5 -13l33 -2v-37q-21 1 -47 1q-28 2 -55 2l-94 -3l5 83l-85 -85q-12 -12 -52 -12 q-50 0 -85 23q16 -102 16 -151q0 -32 -25 -54.5t-65 -25.5v544q0 44 -4.5 56.5t-21.5 13.5z" />
<glyph unicode="&#xb6;" horiz-adv-x="641" d="M19 529q0 69 58.5 113t150.5 41l56 -2l152 -3q3 0 16.5 0.5t22.5 0.5l124 2v-41h-47q-21 0 -29.5 -17t-8.5 -60v-617q0 -41 6.5 -52t29.5 -12l49 -2v-41l-202 3l-202 -3v41l49 2q23 1 29.5 12t6.5 52v378q-109 8 -183 63q-78 58 -78 142zM150 513q0 -54 34 -91.5 t96 -50.5v263q-6 1 -15 1q-49 0 -82 -34.5t-33 -87.5zM368 -111h58v745h-58v-745z" />
<glyph unicode="&#xb7;" horiz-adv-x="250" d="M47 250q0 32 23 55t55 23t55 -23t23 -55t-23 -55t-55 -23t-55 23t-23 55z" />
<glyph unicode="&#xb8;" horiz-adv-x="333" d="M73 -207l16 37q44 -9 67 -9q50 0 50 37q0 35 -38 35q-4 0 -36 -4l-10 8l43 110h41l-28 -78q23 6 45 6q35 0 56 -19.5t21 -53.5q0 -40 -36 -63.5t-97 -23.5q-40 0 -94 18z" />
<glyph unicode="&#xb9;" horiz-adv-x="300" d="M18 597v6q61 14 183 60l10 -8q-6 -96 -6 -151v-190q0 -24 31 -25l41 -1v-29q-10 0 -47.5 1t-61.5 1q-22 0 -46.5 -0.5t-79.5 -1.5v29l46 1q31 0 31 25v261q0 15 -1 18l-2 2l-1 -1l-87 -40q-10 24 -10 43z" />
<glyph unicode="&#xba;" horiz-adv-x="488" d="M89 288v48h310v-48h-310zM89 514q0 70 42 108t119 38q72 0 110.5 -37t38.5 -106q0 -71 -43 -110.5t-120 -39.5q-71 0 -109 38t-38 109zM177 528q0 -132 71 -132q33 0 48 24.5t15 79.5q0 131 -70 131q-64 0 -64 -103z" />
<glyph unicode="&#xbb;" d="M37 64l110 179l-110 173l27 22q65 -66 198 -182v-25q-75 -61 -198 -187zM239 64l110 179l-110 173l27 22q65 -66 198 -182v-25q-75 -61 -198 -187z" />
<glyph unicode="&#xbc;" horiz-adv-x="750" d="M19 604q72 19 198 61l8 -5l-4 -43q-3 -37 -3 -47v-232q0 -43 37 -45l37 -2v-30q-71 2 -116 2q-25 0 -53.5 -0.5t-77.5 -1.5v30l42 2q38 2 38 45v235q0 23 -6 23q-18 -7 -50.5 -21.5t-40.5 -18.5q-9 31 -9 48zM188 0l403 660h69l-403 -660h-69zM436 122q12 35 31 68 l78 129q19 31 50 68l76 16l8 -7v-244h54v-53h-54v-24q0 -41 37 -45l19 -2v-30q-60 2 -98 2l-117 -2v30l38 2q37 2 37 45v24h-155zM489 152h106v179z" />
<glyph unicode="&#xbd;" horiz-adv-x="750" d="M9 604q72 19 198 61l8 -5l-4 -43q-3 -38 -3 -47v-232q0 -43 37 -45l37 -2v-30q-71 2 -116 2q-25 0 -53.5 -0.5t-77.5 -1.5v30l42 2q18 1 28 13t10 32v235q0 23 -6 23q-14 -5 -29.5 -12t-33 -15t-28.5 -13q-9 31 -9 48zM155 0l403 660h69l-403 -660h-69zM455 -2v37 l108 101q70 66 70 128q0 30 -18.5 47.5t-50.5 17.5q-24 0 -36.5 -9t-19.5 -32l-10 -33l-28 4l12 101q52 37 104 37q61 0 100 -29.5t39 -75.5q0 -65 -67 -127l-96 -90v-8l178 9l5 -5q-2 -18 -2 -39q0 -19 2 -34q-133 2 -144 2q-28 0 -146 -2z" />
<glyph unicode="&#xbe;" horiz-adv-x="750" d="M15 365l22 5q35 -72 96 -72q35 0 59.5 22.5t24.5 55.5q0 32 -22.5 52.5t-57.5 20.5q-20 0 -41 -5l-5 3l13 44h22q34 0 54 17t20 46q0 25 -17 38.5t-48 13.5q-57 0 -74 -58h-26l20 92q51 27 100 27q51 0 84 -24t33 -61q0 -52 -74 -88q100 -9 100 -89q0 -60 -54.5 -102 t-132.5 -42q-44 0 -80 14zM160 0l403 660h69l-403 -660h-69zM436 122q12 35 31 68l78 129q19 31 50 68l76 16l8 -7v-244h54v-53h-54v-24q0 -41 37 -45l19 -2v-30q-60 2 -98 2l-117 -2v30l38 2q37 2 37 45v24h-155zM489 152h106v179z" />
<glyph unicode="&#xbf;" horiz-adv-x="444" d="M33 -76q0 42 15.5 71.5t55.5 62.5l77 64q62 51 62 91q0 19 -10 39l34 14q26 -33 26 -74q0 -47 -63 -124q-63 -75 -63 -122q0 -35 27.5 -59t68.5 -24q61 0 72 23l31 71l35 -9q-28 -85 -32 -133q-71 -48 -150 -48q-85 0 -135.5 42.5t-50.5 114.5zM172 389q0 31 23.5 54 t54.5 23q32 0 55 -22.5t23 -53.5q0 -32 -24 -56t-55 -24q-30 0 -53.5 24t-23.5 55z" />
<glyph unicode="&#xc0;" horiz-adv-x="778" d="M24 -3v37l30 3q33 3 56 60l181 438l57 151h71l259 -605q17 -39 55 -44l24 -3v-37q-79 3 -158 3q-75 0 -152 -3v37l53 3q18 1 19.5 22t-5.5 33l-45 114h-251l-42 -112q-8 -16 -2.5 -36t26.5 -21l50 -3v-37q-57 3 -113 3t-113 -3zM239 848q0 16 13 26t34 10q35 0 71 -30 l139 -121h-60l-150 71q-27 12 -37 21.5t-10 22.5zM242 262h204l-104 254z" />
<glyph unicode="&#xc1;" horiz-adv-x="778" d="M24 -3v37l30 3q33 3 56 60l181 438l57 151h71l259 -605q17 -39 55 -44l24 -3v-37q-79 3 -158 3q-75 0 -152 -3v37l53 3q18 1 19.5 22t-5.5 33l-45 114h-251l-42 -112q-8 -16 -2.5 -36t26.5 -21l50 -3v-37q-57 3 -113 3t-113 -3zM242 262h204l-104 254zM272 733l139 121 q36 30 71 30q21 0 34 -10t13 -26q0 -13 -10 -22.5t-37 -21.5l-150 -71h-60z" />
<glyph unicode="&#xc2;" horiz-adv-x="778" d="M24 -3v37l30 3q33 3 56 60l181 438l57 151h71l259 -605q17 -39 55 -44l24 -3v-37q-79 3 -158 3q-75 0 -152 -3v37l53 3q18 1 19.5 22t-5.5 33l-45 114h-251l-42 -112q-8 -16 -2.5 -36t26.5 -21l50 -3v-37q-57 3 -113 3t-113 -3zM202 738l131 143h101l132 -143h-62 l-121 81l-122 -81h-59zM242 262h204l-104 254z" />
<glyph unicode="&#xc3;" horiz-adv-x="778" d="M24 -3v37l30 3q33 3 56 60l181 438l57 151h71l259 -605q17 -39 55 -44l24 -3v-37q-79 3 -158 3q-75 0 -152 -3v37l53 3q18 1 19.5 22t-5.5 33l-45 114h-251l-42 -112q-8 -16 -2.5 -36t26.5 -21l50 -3v-37q-57 3 -113 3t-113 -3zM202 747q6 55 38.5 90t77.5 35 q29 0 80 -24t75 -24q18 0 27.5 9.5t23.5 38.5h43q-18 -65 -46.5 -95.5t-71.5 -30.5q-31 0 -84 25q-47 23 -77 23q-31 0 -46 -47h-40zM242 262h204l-104 254z" />
<glyph unicode="&#xc4;" horiz-adv-x="778" d="M24 -3v37l30 3q33 3 56 60l181 438l57 151h71l259 -605q17 -39 55 -44l24 -3v-37q-79 3 -158 3q-75 0 -152 -3v37l53 3q18 1 19.5 22t-5.5 33l-45 114h-251l-42 -112q-8 -16 -2.5 -36t26.5 -21l50 -3v-37q-57 3 -113 3t-113 -3zM210 809q0 28 20 47.5t48 19.5 q27 0 46.5 -20t19.5 -47q0 -28 -19.5 -47.5t-47.5 -19.5t-47.5 19.5t-19.5 47.5zM242 262h204l-104 254zM425 810q0 27 20 46.5t48 19.5q27 0 46.5 -20t19.5 -47q0 -28 -19.5 -47.5t-47.5 -19.5t-47.5 20t-19.5 48z" />
<glyph unicode="&#xc5;" horiz-adv-x="778" d="M24 -3v37l30 3q33 3 56 60l181 438l57 151h71l259 -605q17 -39 55 -44l24 -3v-37q-79 3 -158 3q-75 0 -152 -3v37l53 3q18 1 19.5 22t-5.5 33l-45 114h-251l-42 -112q-8 -16 -2.5 -36t26.5 -21l50 -3v-37q-57 3 -113 3t-113 -3zM242 262h204l-104 254zM285 827 q0 41 29.5 70t72.5 29q40 0 69 -29.5t29 -70.5t-29.5 -70.5t-70.5 -29.5t-70.5 29.5t-29.5 71.5zM335 826q0 -21 14.5 -35.5t35.5 -14.5t35.5 14.5t14.5 35.5q0 20 -14.5 35t-34.5 15q-22 0 -36.5 -14.5t-14.5 -35.5z" />
<glyph unicode="&#xc6;" horiz-adv-x="1000" d="M12 -3v37l38 3q21 1 54 57l290 490q17 28 17 40q0 15 -43 17l-52 3v37l262 -3l142 2q80 2 83 2h39q44 0 95 -4l6 -7l-14 -142h-36l-8 75q-1 8 -29.5 14t-68.5 6q-70 0 -145 -4v-240q20 -2 67 -2h66q31 0 43 4.5t14 16.5l6 57h40q-3 -54 -3 -107q0 -54 3 -108h-40l-6 50 q-4 37 -57 37h-66q-25 0 -67 -3v-267l131 -3q69 -1 116 14l3 3l23 94h39l-11 -158l-5 -8q-95 -5 -141 -4l-161 3l-65 1l-122 -3v23l32 18q20 11 20 57v119h-260l-62 -107q-19 -33 -19 -55q10 -15 24 -15l54 -3v-37l-118 3zM271 267h230v339l-7 17h-7z" />
<glyph unicode="&#xc7;" horiz-adv-x="722" d="M44 347q0 161 110.5 254.5t300.5 93.5q65 0 115.5 -10t118.5 -37l6 -11q-11 -45 -23 -153h-39l-5 86q-41 38 -81 53.5t-97 15.5q-119 0 -187.5 -74.5t-68.5 -203.5q0 -142 79.5 -227.5t211.5 -85.5q97 0 195 51l12 -12l-22 -49q-55 -31 -105 -43t-119 -12q-29 0 -49 2 l-24 -56q24 6 46 6q35 0 55.5 -19.5t20.5 -53.5q0 -40 -36 -63.5t-97 -23.5q-42 0 -94 18l16 37q44 -9 67 -9q50 0 50 37q0 35 -38 35q-9 0 -36 -4l-10 8l41 93q-90 15 -148 48q-79 46 -122.5 126.5t-43.5 182.5z" />
<glyph unicode="&#xc8;" horiz-adv-x="611" d="M39 644v37q94 -3 190 -3q39 0 118 1.5t118 1.5q40 0 95 -3l6 -7l-14 -142h-36l-8 75q-2 19 -98 19l-145 -3v-240q20 -2 67 -2h66q31 0 43 4.5t14 16.5l6 57h40q-3 -54 -3 -107q0 -54 3 -108h-40l-6 50q-4 37 -57 37h-66q-25 0 -67 -3v-267l149 -3q34 0 66.5 5.5 t34.5 11.5l23 94h39l-11 -158l-5 -8q-57 -3 -140 -3q-37 0 -113 1.5t-113 1.5q-61 0 -123 -3v23l32 18q20 11 20 57v448q0 66 -7 80.5t-41 17.5zM172 848q0 16 13 26t34 10q35 0 71 -30l139 -121h-60l-150 71q-27 12 -37 21.5t-10 22.5z" />
<glyph unicode="&#xc9;" horiz-adv-x="611" d="M39 644v37q94 -3 190 -3q39 0 118 1.5t118 1.5q40 0 95 -3l6 -7l-14 -142h-36l-8 75q-2 19 -98 19l-145 -3v-240q20 -2 67 -2h66q31 0 43 4.5t14 16.5l6 57h40q-3 -54 -3 -107q0 -54 3 -108h-40l-6 50q-4 37 -57 37h-66q-25 0 -67 -3v-267l149 -3q34 0 66.5 5.5 t34.5 11.5l23 94h39l-11 -158l-5 -8q-57 -3 -140 -3q-37 0 -113 1.5t-113 1.5q-61 0 -123 -3v23l32 18q20 11 20 57v448q0 66 -7 80.5t-41 17.5zM205 733l139 121q36 30 71 30q21 0 34 -10t13 -26q0 -13 -10 -22.5t-37 -21.5l-150 -71h-60z" />
<glyph unicode="&#xca;" horiz-adv-x="611" d="M39 644v37q94 -3 190 -3q39 0 118 1.5t118 1.5q40 0 95 -3l6 -7l-14 -142h-36l-8 75q-2 19 -98 19l-145 -3v-240q20 -2 67 -2h66q31 0 43 4.5t14 16.5l6 57h40q-3 -54 -3 -107q0 -54 3 -108h-40l-6 50q-4 37 -57 37h-66q-25 0 -67 -3v-267l149 -3q34 0 66.5 5.5 t34.5 11.5l23 94h39l-11 -158l-5 -8q-57 -3 -140 -3q-37 0 -113 1.5t-113 1.5q-61 0 -123 -3v23l32 18q20 11 20 57v448q0 66 -7 80.5t-41 17.5zM135 738l131 143h101l132 -143h-62l-121 81l-122 -81h-59z" />
<glyph unicode="&#xcb;" horiz-adv-x="611" d="M39 644v37q94 -3 190 -3q39 0 118 1.5t118 1.5q40 0 95 -3l6 -7l-14 -142h-36l-8 75q-2 19 -98 19l-145 -3v-240q20 -2 67 -2h66q31 0 43 4.5t14 16.5l6 57h40q-3 -54 -3 -107q0 -54 3 -108h-40l-6 50q-4 37 -57 37h-66q-25 0 -67 -3v-267l149 -3q34 0 66.5 5.5 t34.5 11.5l23 94h39l-11 -158l-5 -8q-57 -3 -140 -3q-37 0 -113 1.5t-113 1.5q-61 0 -123 -3v23l32 18q20 11 20 57v448q0 66 -7 80.5t-41 17.5zM143 809q0 28 20 47.5t48 19.5q27 0 46.5 -20t19.5 -47q0 -28 -19.5 -47.5t-47.5 -19.5t-47.5 19.5t-19.5 47.5zM358 810 q0 27 20 46.5t48 19.5q27 0 46.5 -20t19.5 -47q0 -28 -19.5 -47.5t-47.5 -19.5t-47.5 20t-19.5 48z" />
<glyph unicode="&#xcc;" horiz-adv-x="389" d="M39 -3v40l37 3q35 3 41.5 15.5t6.5 79.5v408q0 67 -6.5 79.5t-41.5 15.5l-37 3v40q78 -3 155 -3q78 0 156 3v-40l-37 -3q-35 -3 -41.5 -15.5t-6.5 -79.5v-408q0 -67 6.5 -79.5t41.5 -15.5l37 -3v-40q-78 3 -156 3q-77 0 -155 -3zM50 848q0 16 13 26t34 10q35 0 71 -30 l139 -121h-60l-150 71q-27 12 -37 21.5t-10 22.5z" />
<glyph unicode="&#xcd;" horiz-adv-x="389" d="M39 -3v40l37 3q35 3 41.5 15.5t6.5 79.5v408q0 67 -6.5 79.5t-41.5 15.5l-37 3v40q78 -3 155 -3q78 0 156 3v-40l-37 -3q-35 -3 -41.5 -15.5t-6.5 -79.5v-408q0 -67 6.5 -79.5t41.5 -15.5l37 -3v-40q-78 3 -156 3q-77 0 -155 -3zM83 733l139 121q36 30 71 30q21 0 34 -10 t13 -26q0 -13 -10 -22.5t-37 -21.5l-150 -71h-60z" />
<glyph unicode="&#xce;" horiz-adv-x="389" d="M13 738l131 143h101l132 -143h-62l-121 81l-122 -81h-59zM39 -3v40l37 3q35 3 41.5 15.5t6.5 79.5v408q0 67 -6.5 79.5t-41.5 15.5l-37 3v40q78 -3 155 -3q78 0 156 3v-40l-37 -3q-35 -3 -41.5 -15.5t-6.5 -79.5v-408q0 -67 6.5 -79.5t41.5 -15.5l37 -3v-40q-78 3 -156 3 q-77 0 -155 -3z" />
<glyph unicode="&#xcf;" horiz-adv-x="389" d="M21 809q0 28 20 47.5t48 19.5q27 0 46.5 -20t19.5 -47q0 -28 -19.5 -47.5t-47.5 -19.5t-47.5 19.5t-19.5 47.5zM39 -3v40l37 3q35 3 41.5 15.5t6.5 79.5v408q0 67 -6.5 79.5t-41.5 15.5l-37 3v40q78 -3 155 -3q78 0 156 3v-40l-37 -3q-35 -3 -41.5 -15.5t-6.5 -79.5v-408 q0 -67 6.5 -79.5t41.5 -15.5l37 -3v-40q-78 3 -156 3q-77 0 -155 -3zM236 810q0 27 20 46.5t48 19.5q27 0 46.5 -20t19.5 -47q0 -28 -19.5 -47.5t-47.5 -19.5t-47.5 20t-19.5 48z" />
<glyph unicode="&#xd0;" horiz-adv-x="833" d="M10 338v42h110v163q0 66 -7 80.5t-41 17.5l-37 3v37q81 -3 162 -3q40 0 119.5 1.5t119.5 1.5q101 0 165 -19.5t108 -63.5q77 -75 77 -222q0 -162 -104 -263q-118 -116 -303 -116q-26 0 -78 1.5t-78 1.5q-77 0 -155 -3v23l32 18q20 11 20 57v243h-110zM261 57q31 -5 68 -5 q162 0 234 71q73 73 73 225q0 146 -66 211q-74 72 -246 72q-31 0 -63 -4v-247h151v-42h-151v-281z" />
<glyph unicode="&#xd1;" horiz-adv-x="833" d="M35 -3v37l37 3q34 3 41 17.5t7 80.5v408q0 66 -7 80.5t-41 17.5l-37 3v37q60 -3 120 -3q42 0 84 3q83 -110 103 -133l312 -364v359q0 66 -7 80.5t-41 17.5l-37 3v37q57 -3 115 -3q57 0 114 3v-37l-37 -3q-34 -3 -41 -17.5t-7 -80.5v-454l3 -101l-7 -4l-82 13 q-69 77 -142.5 164t-166.5 200t-139 167v-393q0 -66 7 -80.5t41 -17.5l37 -3v-37q-57 3 -114 3q-58 0 -115 -3zM235 747q6 55 38.5 90t77.5 35q29 0 80 -24t75 -24q18 0 27.5 9.5t23.5 38.5h43q-18 -65 -46.5 -95.5t-71.5 -30.5q-31 0 -84 25q-47 23 -77 23q-31 0 -46 -47 h-40z" />
<glyph unicode="&#xd2;" horiz-adv-x="833" d="M47 332q0 172 101 267.5t282 95.5q169 0 263 -92t94 -257q0 -171 -100.5 -267t-279.5 -96q-172 0 -266 91t-94 258zM197 355q0 -181 85 -264q52 -52 132 -52q110 0 166.5 72.5t56.5 213.5q0 179 -86 263q-53 51 -130 51q-115 0 -169.5 -75t-54.5 -209zM274 848 q0 16 13 26t34 10q35 0 71 -30l139 -121h-60l-150 71q-27 12 -37 21.5t-10 22.5z" />
<glyph unicode="&#xd3;" horiz-adv-x="833" d="M47 332q0 172 101 267.5t282 95.5q169 0 263 -92t94 -257q0 -171 -100.5 -267t-279.5 -96q-172 0 -266 91t-94 258zM197 355q0 -181 85 -264q52 -52 132 -52q110 0 166.5 72.5t56.5 213.5q0 179 -86 263q-53 51 -130 51q-115 0 -169.5 -75t-54.5 -209zM307 733l139 121 q36 30 71 30q21 0 34 -10t13 -26q0 -13 -10 -22.5t-37 -21.5l-150 -71h-60z" />
<glyph unicode="&#xd4;" horiz-adv-x="833" d="M47 332q0 172 101 267.5t282 95.5q169 0 263 -92t94 -257q0 -171 -100.5 -267t-279.5 -96q-172 0 -266 91t-94 258zM197 355q0 -181 85 -264q52 -52 132 -52q110 0 166.5 72.5t56.5 213.5q0 179 -86 263q-53 51 -130 51q-115 0 -169.5 -75t-54.5 -209zM237 738l131 143 h101l132 -143h-62l-121 81l-122 -81h-59z" />
<glyph unicode="&#xd5;" horiz-adv-x="833" d="M47 332q0 172 101 267.5t282 95.5q169 0 263 -92t94 -257q0 -171 -100.5 -267t-279.5 -96q-172 0 -266 91t-94 258zM197 355q0 -181 85 -264q52 -52 132 -52q110 0 166.5 72.5t56.5 213.5q0 179 -86 263q-53 51 -130 51q-115 0 -169.5 -75t-54.5 -209zM237 747 q6 55 38.5 90t77.5 35q29 0 80 -24t75 -24q18 0 27.5 9.5t23.5 38.5h43q-18 -65 -46.5 -95.5t-71.5 -30.5q-31 0 -84 25q-47 23 -77 23q-31 0 -46 -47h-40z" />
<glyph unicode="&#xd6;" horiz-adv-x="833" d="M47 332q0 172 101 267.5t282 95.5q169 0 263 -92t94 -257q0 -171 -100.5 -267t-279.5 -96q-172 0 -266 91t-94 258zM197 355q0 -181 85 -264q52 -52 132 -52q110 0 166.5 72.5t56.5 213.5q0 179 -86 263q-53 51 -130 51q-115 0 -169.5 -75t-54.5 -209zM245 809 q0 28 20 47.5t48 19.5q27 0 46.5 -20t19.5 -47q0 -28 -19.5 -47.5t-47.5 -19.5t-47.5 19.5t-19.5 47.5zM460 810q0 27 20 46.5t48 19.5q27 0 46.5 -20t19.5 -47q0 -28 -19.5 -47.5t-47.5 -19.5t-47.5 20t-19.5 48z" />
<glyph unicode="&#xd7;" horiz-adv-x="606" d="M91 99l151 151l-151 151l61 61l151 -151l151 151l61 -61l-151 -151l151 -151l-61 -61l-151 151l-151 -151z" />
<glyph unicode="&#xd8;" horiz-adv-x="833" d="M32 20l91 83q-42 49 -59 99t-17 124q0 176 99.5 272.5t281.5 96.5q72 0 136 -18q37 -11 60.5 -23t57.5 -37l89 81l37 -39l-89 -82q38 -55 53 -104t15 -120q0 -177 -99.5 -273.5t-282.5 -96.5q-77 0 -146 21q-33 10 -52.5 21.5t-46.5 36.5l-90 -82zM197 349q0 -97 25 -157 l370 342q-33 58 -71 81.5t-97 23.5q-227 0 -227 -290zM242 138q38 -55 75.5 -77t92.5 -22q227 0 227 294q0 94 -22 148z" />
<glyph unicode="&#xd9;" horiz-adv-x="778" d="M26 644v37q78 -3 155 -3q78 0 156 3v-37l-37 -3q-34 -3 -41 -17.5t-7 -80.5v-248q0 -78 8 -118.5t28 -64.5q40 -47 140 -47q99 0 141 43q26 26 36.5 70.5t10.5 123.5v241q0 66 -7 80.5t-41 17.5l-37 3v37q57 -3 115 -3q57 0 114 3v-37l-37 -3q-34 -3 -41 -17.5t-7 -80.5 v-292q0 -136 -70 -202t-214 -66q-129 0 -204.5 52.5t-75.5 141.5v366q0 66 -7 80.5t-41 17.5zM289 848q0 16 13 26t34 10q35 0 71 -30l139 -121h-60l-150 71q-27 12 -37 21.5t-10 22.5z" />
<glyph unicode="&#xda;" horiz-adv-x="778" d="M26 644v37q78 -3 155 -3q78 0 156 3v-37l-37 -3q-34 -3 -41 -17.5t-7 -80.5v-248q0 -78 8 -118.5t28 -64.5q40 -47 140 -47q99 0 141 43q26 26 36.5 70.5t10.5 123.5v241q0 66 -7 80.5t-41 17.5l-37 3v37q57 -3 115 -3q57 0 114 3v-37l-37 -3q-34 -3 -41 -17.5t-7 -80.5 v-292q0 -136 -70 -202t-214 -66q-129 0 -204.5 52.5t-75.5 141.5v366q0 66 -7 80.5t-41 17.5zM322 733l139 121q36 30 71 30q21 0 34 -10t13 -26q0 -13 -10 -22.5t-37 -21.5l-150 -71h-60z" />
<glyph unicode="&#xdb;" horiz-adv-x="778" d="M26 644v37q78 -3 155 -3q78 0 156 3v-37l-37 -3q-34 -3 -41 -17.5t-7 -80.5v-248q0 -78 8 -118.5t28 -64.5q40 -47 140 -47q99 0 141 43q26 26 36.5 70.5t10.5 123.5v241q0 66 -7 80.5t-41 17.5l-37 3v37q57 -3 115 -3q57 0 114 3v-37l-37 -3q-34 -3 -41 -17.5t-7 -80.5 v-292q0 -136 -70 -202t-214 -66q-129 0 -204.5 52.5t-75.5 141.5v366q0 66 -7 80.5t-41 17.5zM252 738l131 143h101l132 -143h-62l-121 81l-122 -81h-59z" />
<glyph unicode="&#xdc;" horiz-adv-x="778" d="M26 644v37q78 -3 155 -3q78 0 156 3v-37l-37 -3q-34 -3 -41 -17.5t-7 -80.5v-248q0 -78 8 -118.5t28 -64.5q40 -47 140 -47q99 0 141 43q26 26 36.5 70.5t10.5 123.5v241q0 66 -7 80.5t-41 17.5l-37 3v37q57 -3 115 -3q57 0 114 3v-37l-37 -3q-34 -3 -41 -17.5t-7 -80.5 v-292q0 -136 -70 -202t-214 -66q-129 0 -204.5 52.5t-75.5 141.5v366q0 66 -7 80.5t-41 17.5zM260 809q0 28 20 47.5t48 19.5q27 0 46.5 -20t19.5 -47q0 -28 -19.5 -47.5t-47.5 -19.5t-47.5 19.5t-19.5 47.5zM475 810q0 27 20 46.5t48 19.5q27 0 46.5 -20t19.5 -47 q0 -28 -19.5 -47.5t-47.5 -19.5t-47.5 20t-19.5 48z" />
<glyph unicode="&#xdd;" horiz-adv-x="667" d="M15 622v37l159 36q35 -20 59.5 -49.5t54.5 -86.5l107 -203l188 322h77v-19l-176 -261q-26 -39 -53 -100v-163q0 -67 6.5 -79.5t41.5 -15.5l37 -3v-40q-78 3 -156 3q-77 0 -155 -3v40l37 3q35 3 41.5 15.5t6.5 79.5v139q-23 51 -44 85l-101 163q-39 63 -64.5 81.5 t-65.5 18.5zM249 733l139 121q36 30 71 30q21 0 34 -10t13 -26q0 -13 -10 -22.5t-37 -21.5l-150 -71h-60z" />
<glyph unicode="&#xde;" horiz-adv-x="611" d="M39 -3v40l37 3q35 3 41.5 15.5t6.5 79.5v408q1 66 -6.5 80.5t-41.5 17.5l-37 3v37q78 -3 155 -3q78 0 156 3v-37l-37 -3q-32 -2 -40 -14t-8 -55v-23q36 -3 72 -3q120 0 169 -25q68 -34 68 -125q0 -88 -59 -150t-143 -62q-18 2 -31 3.5t-17.5 2t-7.5 1t-5 0.5v45 q11 -7 43 -7q76 0 76 123q0 82 -28 118q-21 26 -67 26q-47 0 -70 -9v-352q0 -68 6.5 -80.5t41.5 -14.5l47 -3v-40q-82 3 -165 3q-78 0 -156 -3z" />
<glyph unicode="&#xdf;" horiz-adv-x="611" d="M30 -3v37l39 2q23 2 29.5 13t6.5 51v268h-71v23l69 45v73q0 19 7 36.5t22.5 37t41.5 42.5q38 34 70 55t63 30.5t64 9.5q68 0 109 -39t41 -104q0 -44 -24 -146l-6 -26l-13 -9q-25 19 -54 19q-23 0 -36 -10.5t-13 -28.5q0 -35 57 -63l79 -46q29 -17 41.5 -40t12.5 -60 q0 -58 -52 -107l-45 -42q-16 -15 -28 -20q-41 -15 -78 -15q-32 0 -73 21v-7q-60 3 -119 3q-70 0 -140 -3zM227 99q0 -35 6.5 -47.5t25.5 -14.5l29 -3l9 78l33 6l4 -54q36 -24 64 -24t47.5 17t19.5 43q0 17 -7 30t-24.5 27t-51.5 34q-57 35 -75.5 58.5t-18.5 60.5 q0 74 92 138q26 18 61 18q7 45 7 66q0 53 -31.5 87t-80.5 34q-29 0 -54 -12.5t-38 -34.5q-17 -29 -17 -113v-394z" />
<glyph unicode="&#xe0;" d="M40 107q0 64 38 97t133 53l88 18q-2 61 -27 89.5t-75 28.5q-20 0 -38 -4.5t-20 -9.5l-22 -50l-30 7v69l53 32q56 34 120 34q76 0 118 -37.5t42 -103.5v-232q0 -35 5.5 -47.5t22.5 -13.5l30 -3v-37q-44 3 -88 3q-46 0 -91 -3l-5 8l5 62l-93 -72q-15 -12 -49 -12 q-57 0 -87 31.5t-30 92.5zM111 647q0 20 12 32t32 12q32 0 65 -37l129 -148h-56q-119 73 -135 84l-4 2q-24 15 -33.5 27t-9.5 28zM162 133q0 -29 13.5 -46t37.5 -17q22 0 46.5 12.5t39.5 32.5v118l-45 -12q-53 -14 -72.5 -32.5t-19.5 -55.5z" />
<glyph unicode="&#xe1;" d="M40 107q0 64 38 97t133 53l88 18q-2 61 -27 89.5t-75 28.5q-20 0 -38 -4.5t-20 -9.5l-22 -50l-30 7v69l53 32q56 34 120 34q76 0 118 -37.5t42 -103.5v-232q0 -35 5.5 -47.5t22.5 -13.5l30 -3v-37q-44 3 -88 3q-46 0 -91 -3l-5 8l5 62l-93 -72q-15 -12 -49 -12 q-57 0 -87 31.5t-30 92.5zM162 133q0 -29 13.5 -46t37.5 -17q22 0 46.5 12.5t39.5 32.5v118l-45 -12q-53 -14 -72.5 -32.5t-19.5 -55.5zM171 506l129 148q33 37 65 37q20 0 32 -12t12 -32q0 -16 -9.5 -28t-33.5 -27q-2 -1 -3 -2t-2.5 -1.5t-9.5 -5.5t-20.5 -13t-39.5 -25 t-64 -39h-56z" />
<glyph unicode="&#xe2;" d="M40 107q0 64 38 97t133 53l88 18q-2 61 -27 89.5t-75 28.5q-20 0 -38 -4.5t-20 -9.5l-22 -50l-30 7v69l53 32q56 34 120 34q76 0 118 -37.5t42 -103.5v-232q0 -35 5.5 -47.5t22.5 -13.5l30 -3v-37q-44 3 -88 3q-46 0 -91 -3l-5 8l5 62l-93 -72q-15 -12 -49 -12 q-57 0 -87 31.5t-30 92.5zM91 512l121 175h93l123 -175h-57l-112 98l-113 -98h-55zM162 133q0 -29 13.5 -46t37.5 -17q22 0 46.5 12.5t39.5 32.5v118l-45 -12q-53 -14 -72.5 -32.5t-19.5 -55.5z" />
<glyph unicode="&#xe3;" d="M40 107q0 64 38 97t133 53l88 18q-2 61 -27 89.5t-75 28.5q-20 0 -38 -4.5t-20 -9.5l-22 -50l-30 7v69l53 32q56 34 120 34q76 0 118 -37.5t42 -103.5v-232q0 -35 5.5 -47.5t22.5 -13.5l30 -3v-37q-44 3 -88 3q-46 0 -91 -3l-5 8l5 62l-93 -72q-15 -12 -49 -12 q-57 0 -87 31.5t-30 92.5zM77 537q6 55 38.5 90t77.5 35q29 0 80 -24t75 -24q18 0 27.5 9.5t23.5 38.5h43q-18 -65 -46.5 -95.5t-71.5 -30.5q-31 0 -84 25q-47 23 -77 23q-31 0 -46 -47h-40zM162 133q0 -29 13.5 -46t37.5 -17q22 0 46.5 12.5t39.5 32.5v118l-45 -12 q-53 -14 -72.5 -32.5t-19.5 -55.5z" />
<glyph unicode="&#xe4;" d="M40 107q0 64 38 97t133 53l88 18q-2 61 -27 89.5t-75 28.5q-20 0 -38 -4.5t-20 -9.5l-22 -50l-30 7v69l53 32q56 34 120 34q76 0 118 -37.5t42 -103.5v-232q0 -35 5.5 -47.5t22.5 -13.5l30 -3v-37q-44 3 -88 3q-46 0 -91 -3l-5 8l5 62l-93 -72q-15 -12 -49 -12 q-57 0 -87 31.5t-30 92.5zM85 599q0 28 20 47.5t48 19.5q27 0 46.5 -20t19.5 -47q0 -28 -19.5 -47.5t-47.5 -19.5t-47.5 19.5t-19.5 47.5zM162 133q0 -29 13.5 -46t37.5 -17q22 0 46.5 12.5t39.5 32.5v118l-45 -12q-53 -14 -72.5 -32.5t-19.5 -55.5zM300 600q0 27 20 46.5 t48 19.5q27 0 46.5 -20t19.5 -47q0 -28 -19.5 -47.5t-47.5 -19.5t-47.5 20t-19.5 48z" />
<glyph unicode="&#xe5;" d="M40 107q0 64 38 97t133 53l88 18q-2 61 -27 89.5t-75 28.5q-20 0 -38 -4.5t-20 -9.5l-22 -50l-30 7v69l53 32q56 34 120 34q76 0 118 -37.5t42 -103.5v-232q0 -35 5.5 -47.5t22.5 -13.5l30 -3v-37q-44 3 -88 3q-46 0 -91 -3l-5 8l5 62l-93 -72q-15 -12 -49 -12 q-57 0 -87 31.5t-30 92.5zM160 600q0 41 29.5 70t72.5 29q40 0 69 -29.5t29 -70.5t-29.5 -70.5t-70.5 -29.5t-70.5 29.5t-29.5 71.5zM162 133q0 -29 13.5 -46t37.5 -17q22 0 46.5 12.5t39.5 32.5v118l-45 -12q-53 -14 -72.5 -32.5t-19.5 -55.5zM210 599q0 -21 14.5 -35.5 t35.5 -14.5t35.5 14.5t14.5 35.5q0 20 -14.5 35t-34.5 15q-22 0 -36.5 -14.5t-14.5 -35.5z" />
<glyph unicode="&#xe6;" horiz-adv-x="778" d="M46 107q0 59 29 90q30 34 156 60l88 18q-3 58 -22 86q-28 39 -85 39q-37 0 -72 -24l-16 -42l-32 4v67l53 32q56 34 122 34q46 0 76 -11.5t62 -40.5q63 52 142 52q83 0 133.5 -48.5t50.5 -127.5v-52q-80 -20 -158 -20h-131q3 -61 24 -98q19 -32 53 -51.5t72 -19.5 q55 0 118 35l12 -15l-22 -48q-48 -25 -82 -34t-78 -9q-68 0 -114.5 22.5t-80.5 72.5l-114 -82q-20 -13 -63 -13q-53 0 -87 35t-34 89zM172 128q0 -58 58 -58q25 0 49.5 12.5t39.5 32.5v114l-55 -13q-92 -22 -92 -88zM436 276l32 -1l48 -2h4l84 3q-1 74 -20.5 106.5 t-62.5 32.5t-63 -32.5t-22 -106.5z" />
<glyph unicode="&#xe7;" horiz-adv-x="444" d="M37 229q0 65 27 107.5t94 82.5l52 31q36 21 90 21q46 0 103 -20l7 -13q-13 -61 -20 -141h-36l-7 60q-2 17 -28 30t-60 13q-98 0 -98 -139q0 -96 42.5 -151.5t116.5 -55.5q39 0 85 19l9 -10l-21 -46q-62 -34 -135 -34l-24 -54q24 6 46 6q35 0 55.5 -19.5t20.5 -53.5 q0 -40 -36 -63.5t-97 -23.5q-41 0 -94 18l16 37q44 -9 67 -9q50 0 50 37q0 35 -38 35q-9 0 -36 -4l-10 8l40 89q-89 12 -135 74t-46 169z" />
<glyph unicode="&#xe8;" d="M42 226q0 138 95 194l47 28q39 23 87 23q87 0 138.5 -48t51.5 -128v-52q-81 -20 -158 -20h-131q3 -63 25 -100q19 -31 52.5 -50t71.5 -19q55 0 118 35l12 -15l-22 -48q-49 -25 -82 -34t-76 -9q-112 0 -170.5 62t-58.5 181zM122 647q0 20 12 32t32 12q32 0 65 -37 l129 -148h-56q-119 73 -135 84l-4 2q-24 15 -33.5 27t-9.5 28zM166 276l32 -1q15 -1 25 -1t12.5 -0.5t4 -0.5h3h7.5l84 3q0 74 -20 106.5t-63 32.5q-44 0 -64.5 -33t-20.5 -106z" />
<glyph unicode="&#xe9;" d="M42 226q0 138 95 194l47 28q39 23 87 23q87 0 138.5 -48t51.5 -128v-52q-81 -20 -158 -20h-131q3 -63 25 -100q19 -31 52.5 -50t71.5 -19q55 0 118 35l12 -15l-22 -48q-49 -25 -82 -34t-76 -9q-112 0 -170.5 62t-58.5 181zM166 276l32 -1q15 -1 25 -1t12.5 -0.5t4 -0.5h3 h7.5l84 3q0 74 -20 106.5t-63 32.5q-44 0 -64.5 -33t-20.5 -106zM182 506l129 148q33 37 65 37q20 0 32 -12t12 -32q0 -16 -9.5 -28t-33.5 -27q-2 -1 -3 -2t-2.5 -1.5t-9.5 -5.5t-20.5 -13t-39.5 -25t-64 -39h-56z" />
<glyph unicode="&#xea;" d="M42 226q0 138 95 194l47 28q39 23 87 23q87 0 138.5 -48t51.5 -128v-52q-81 -20 -158 -20h-131q3 -63 25 -100q19 -31 52.5 -50t71.5 -19q55 0 118 35l12 -15l-22 -48q-49 -25 -82 -34t-76 -9q-112 0 -170.5 62t-58.5 181zM102 512l121 175h93l123 -175h-57l-112 98 l-113 -98h-55zM166 276l32 -1q15 -1 25 -1t12.5 -0.5t4 -0.5h3h7.5l84 3q0 74 -20 106.5t-63 32.5q-44 0 -64.5 -33t-20.5 -106z" />
<glyph unicode="&#xeb;" d="M42 226q0 138 95 194l47 28q39 23 87 23q87 0 138.5 -48t51.5 -128v-52q-81 -20 -158 -20h-131q3 -63 25 -100q19 -31 52.5 -50t71.5 -19q55 0 118 35l12 -15l-22 -48q-49 -25 -82 -34t-76 -9q-112 0 -170.5 62t-58.5 181zM96 599q0 28 20 47.5t48 19.5q27 0 46.5 -20 t19.5 -47q0 -28 -19.5 -47.5t-47.5 -19.5t-47.5 19.5t-19.5 47.5zM166 276l32 -1q15 -1 25 -1t12.5 -0.5t4 -0.5h3h7.5l84 3q0 74 -20 106.5t-63 32.5q-44 0 -64.5 -33t-20.5 -106zM311 600q0 27 20 46.5t48 19.5q27 0 46.5 -20t19.5 -47q0 -28 -19.5 -47.5t-47.5 -19.5 t-47.5 20t-19.5 48z" />
<glyph unicode="&#xec;" horiz-adv-x="333" d="M17 647q0 20 12 32t32 12q32 0 65 -37l129 -148h-56q-119 73 -135 84l-4 2q-24 15 -33.5 27t-9.5 28zM34 -3v37l35 2q23 2 29.5 13t6.5 51v219q0 44 -4.5 56.5t-21.5 13.5l-45 3v36l15 2q56 8 98 19l70 22l10 -6v-365q0 -40 6.5 -51t29.5 -13l35 -2v-37q-68 3 -135 3 q-65 0 -129 -3z" />
<glyph unicode="&#xed;" horiz-adv-x="333" d="M34 -3v37l35 2q23 2 29.5 13t6.5 51v219q0 44 -4.5 56.5t-21.5 13.5l-45 3v36l15 2q56 8 98 19l70 22l10 -6v-365q0 -40 6.5 -51t29.5 -13l35 -2v-37q-68 3 -135 3q-65 0 -129 -3zM77 506l129 148q33 37 65 37q20 0 32 -12t12 -32q0 -16 -9.5 -28t-33.5 -27q-2 -1 -3 -2 t-2.5 -1.5t-9.5 -5.5t-20.5 -13t-39.5 -25t-64 -39h-56z" />
<glyph unicode="&#xee;" horiz-adv-x="333" d="M-3 512l121 175h93l123 -175h-57l-112 98l-113 -98h-55zM34 -3v37l35 2q23 2 29.5 13t6.5 51v219q0 44 -4.5 56.5t-21.5 13.5l-45 3v36l15 2q56 8 98 19l70 22l10 -6v-365q0 -40 6.5 -51t29.5 -13l35 -2v-37q-68 3 -135 3q-65 0 -129 -3z" />
<glyph unicode="&#xef;" horiz-adv-x="333" d="M-9 599q0 28 20 47.5t48 19.5q27 0 46.5 -20t19.5 -47q0 -28 -19.5 -47.5t-47.5 -19.5t-47.5 19.5t-19.5 47.5zM34 -3v37l35 2q23 2 29.5 13t6.5 51v219q0 44 -4.5 56.5t-21.5 13.5l-45 3v36l15 2q56 8 98 19l70 22l10 -6v-365q0 -40 6.5 -51t29.5 -13l35 -2v-37 q-68 3 -135 3q-65 0 -129 -3zM206 600q0 27 20 46.5t48 19.5q27 0 46.5 -20t19.5 -47q0 -28 -19.5 -47.5t-47.5 -19.5t-47.5 20t-19.5 48z" />
<glyph unicode="&#xf0;" horiz-adv-x="556" d="M40 224q0 116 62.5 181.5t172.5 65.5q28 0 55 -9q-13 49 -61 106l-133 -62l-18 38l121 56q-45 44 -95 68l40 52q89 -43 138 -81l134 62l18 -38l-116 -54q56 -56 84.5 -97.5t48.5 -96.5q26 -73 26 -146q0 -133 -68 -209.5t-186 -76.5q-106 0 -164.5 63.5t-58.5 177.5z M176 247q0 -216 106 -216q51 0 75 47t24 147q0 198 -107 198q-52 0 -75 -41.5t-23 -134.5z" />
<glyph unicode="&#xf1;" horiz-adv-x="611" d="M24 -3v37l35 2q23 2 29.5 13t6.5 51v219q0 44 -4.5 56.5t-21.5 13.5l-45 3v36q42 2 76 10t111 33l6 -6v-75l80 62q23 19 70 19q76 0 116 -42q35 -38 35 -143v-186q0 -40 6.5 -51t29.5 -13l33 -2v-37q-51 3 -101 3q-45 0 -90 -3v273q0 60 -22.5 87.5t-71.5 27.5 q-33 0 -59 -21t-26 -47v-217q0 -40 6.5 -51t29.5 -13l35 -2v-37q-68 3 -135 3q-65 0 -129 -3zM124 537q6 55 38.5 90t77.5 35q29 0 80 -24t75 -24q18 0 27.5 9.5t23.5 38.5h43q-18 -65 -46.5 -95.5t-71.5 -30.5q-31 0 -84 25q-47 23 -77 23q-31 0 -46 -47h-40z" />
<glyph unicode="&#xf2;" horiz-adv-x="556" d="M40 224q0 119 64 183t183 64q111 0 170.5 -60.5t59.5 -174.5q0 -121 -65 -187t-185 -66q-109 0 -168 63t-59 178zM128 647q0 20 12 32t32 12q32 0 65 -37l129 -148h-56q-119 73 -135 84l-4 2q-24 15 -33.5 27t-9.5 28zM176 248q0 -217 109 -217q51 0 73.5 41t22.5 133 q0 218 -106 218q-52 0 -75.5 -42t-23.5 -133z" />
<glyph unicode="&#xf3;" horiz-adv-x="556" d="M40 224q0 119 64 183t183 64q111 0 170.5 -60.5t59.5 -174.5q0 -121 -65 -187t-185 -66q-109 0 -168 63t-59 178zM176 248q0 -217 109 -217q51 0 73.5 41t22.5 133q0 218 -106 218q-52 0 -75.5 -42t-23.5 -133zM188 506l129 148q33 37 65 37q20 0 32 -12t12 -32 q0 -16 -9.5 -28t-33.5 -27q-2 -1 -3 -2t-2.5 -1.5t-9.5 -5.5t-20.5 -13t-39.5 -25t-64 -39h-56z" />
<glyph unicode="&#xf4;" horiz-adv-x="556" d="M40 224q0 119 64 183t183 64q111 0 170.5 -60.5t59.5 -174.5q0 -121 -65 -187t-185 -66q-109 0 -168 63t-59 178zM108 512l121 175h93l123 -175h-57l-112 98l-113 -98h-55zM176 248q0 -217 109 -217q51 0 73.5 41t22.5 133q0 218 -106 218q-52 0 -75.5 -42t-23.5 -133z " />
<glyph unicode="&#xf5;" horiz-adv-x="556" d="M40 224q0 119 64 183t183 64q111 0 170.5 -60.5t59.5 -174.5q0 -121 -65 -187t-185 -66q-109 0 -168 63t-59 178zM94 537q6 55 38.5 90t77.5 35q29 0 80 -24t75 -24q18 0 27.5 9.5t23.5 38.5h43q-18 -65 -46.5 -95.5t-71.5 -30.5q-31 0 -84 25q-47 23 -77 23 q-31 0 -46 -47h-40zM176 248q0 -217 109 -217q51 0 73.5 41t22.5 133q0 218 -106 218q-52 0 -75.5 -42t-23.5 -133z" />
<glyph unicode="&#xf6;" horiz-adv-x="556" d="M40 224q0 119 64 183t183 64q111 0 170.5 -60.5t59.5 -174.5q0 -121 -65 -187t-185 -66q-109 0 -168 63t-59 178zM102 599q0 28 20 47.5t48 19.5q27 0 46.5 -20t19.5 -47q0 -28 -19.5 -47.5t-47.5 -19.5t-47.5 19.5t-19.5 47.5zM176 248q0 -217 109 -217q51 0 73.5 41 t22.5 133q0 218 -106 218q-52 0 -75.5 -42t-23.5 -133zM317 600q0 27 20 46.5t48 19.5q27 0 46.5 -20t19.5 -47q0 -28 -19.5 -47.5t-47.5 -19.5t-47.5 20t-19.5 48z" />
<glyph unicode="&#xf7;" horiz-adv-x="606" d="M46 207v86h514v-86h-514zM225 80q0 32 23 55t55 23t55 -23t23 -55t-23 -55t-55 -23t-55 23t-23 55zM225 420q0 32 23 55t55 23t55 -23t23 -55t-23 -55t-55 -23t-55 23t-23 55z" />
<glyph unicode="&#xf8;" horiz-adv-x="556" d="M23 5l63 59q-46 59 -46 160q0 119 63.5 183t182.5 64q105 0 168 -57l56 54l24 -22l-60 -56q24 -35 33.5 -67t9.5 -80q0 -126 -64.5 -193t-185.5 -67q-48 0 -84 13t-76 44l-61 -58zM176 258q0 -44 8 -100l184 175q-15 49 -36 69.5t-56 20.5q-100 0 -100 -165zM190 119 q18 -47 40 -67.5t56 -20.5q50 0 72.5 41.5t22.5 134.5q0 52 -7 87z" />
<glyph unicode="&#xf9;" horiz-adv-x="611" d="M25 392v36q75 10 113 21l70 22l10 -6v-261q0 -72 17.5 -101.5t60.5 -29.5q40 0 68 26.5t28 63.5v156q0 44 -4.5 56.5t-21.5 13.5l-45 3v36q76 10 113 21l70 22l10 -6v-365q0 -41 6 -52t30 -12l33 -2v-37q-51 3 -101 3q-47 0 -95 -3l5 83l-76 -74q-23 -23 -69 -23 q-73 0 -112 40.5t-39 116.5v179q0 44 -4.5 56.5t-21.5 13.5zM156 647q0 20 12 32t32 12q32 0 65 -37l129 -148h-56q-119 73 -135 84l-4 2q-24 15 -33.5 27t-9.5 28z" />
<glyph unicode="&#xfa;" horiz-adv-x="611" d="M25 392v36q75 10 113 21l70 22l10 -6v-261q0 -72 17.5 -101.5t60.5 -29.5q40 0 68 26.5t28 63.5v156q0 44 -4.5 56.5t-21.5 13.5l-45 3v36q76 10 113 21l70 22l10 -6v-365q0 -41 6 -52t30 -12l33 -2v-37q-51 3 -101 3q-47 0 -95 -3l5 83l-76 -74q-23 -23 -69 -23 q-73 0 -112 40.5t-39 116.5v179q0 44 -4.5 56.5t-21.5 13.5zM216 506l129 148q33 37 65 37q20 0 32 -12t12 -32q0 -16 -9.5 -28t-33.5 -27q-2 -1 -3 -2t-2.5 -1.5t-9.5 -5.5t-20.5 -13t-39.5 -25t-64 -39h-56z" />
<glyph unicode="&#xfb;" horiz-adv-x="611" d="M25 392v36q75 10 113 21l70 22l10 -6v-261q0 -72 17.5 -101.5t60.5 -29.5q40 0 68 26.5t28 63.5v156q0 44 -4.5 56.5t-21.5 13.5l-45 3v36q76 10 113 21l70 22l10 -6v-365q0 -41 6 -52t30 -12l33 -2v-37q-51 3 -101 3q-47 0 -95 -3l5 83l-76 -74q-23 -23 -69 -23 q-73 0 -112 40.5t-39 116.5v179q0 44 -4.5 56.5t-21.5 13.5zM136 512l121 175h93l123 -175h-57l-112 98l-113 -98h-55z" />
<glyph unicode="&#xfc;" horiz-adv-x="611" d="M25 392v36q75 10 113 21l70 22l10 -6v-261q0 -72 17.5 -101.5t60.5 -29.5q40 0 68 26.5t28 63.5v156q0 44 -4.5 56.5t-21.5 13.5l-45 3v36q76 10 113 21l70 22l10 -6v-365q0 -41 6 -52t30 -12l33 -2v-37q-51 3 -101 3q-47 0 -95 -3l5 83l-76 -74q-23 -23 -69 -23 q-73 0 -112 40.5t-39 116.5v179q0 44 -4.5 56.5t-21.5 13.5zM130 599q0 28 20 47.5t48 19.5q27 0 46.5 -20t19.5 -47q0 -28 -19.5 -47.5t-47.5 -19.5t-47.5 19.5t-19.5 47.5zM345 600q0 27 20 46.5t48 19.5q27 0 46.5 -20t19.5 -47q0 -28 -19.5 -47.5t-47.5 -19.5t-47.5 20 t-19.5 48z" />
<glyph unicode="&#xfd;" horiz-adv-x="556" d="M10 421v38q66 -3 133 -3q66 0 132 3v-38l-35 -2q-26 -2 -26 -23q0 -8 17 -53l84 -218l101 252q4 10 4 22q0 18 -27 20l-33 2v38q46 -3 93 -3t93 3v-38l-26 -5q-22 -5 -41 -47l-199 -463q-74 -172 -176 -172q-35 0 -73 17l18 95l11 4q33 -37 70 -37q26 0 50.5 24t41.5 67 l23 56l-158 404q-21 54 -42 55zM194 506l129 148q33 37 65 37q20 0 32 -12t12 -32q0 -16 -9.5 -28t-33.5 -27q-2 -1 -3 -2t-2.5 -1.5t-9.5 -5.5t-20.5 -13t-39.5 -25t-64 -39h-56z" />
<glyph unicode="&#xfe;" horiz-adv-x="611" d="M17 641v36q80 8 121 21l72 22l8 -6v-331l61 49q49 39 103 39q78 0 129.5 -52.5t51.5 -132.5q0 -141 -102 -218q-9 -7 -17 -13q-91 -72 -137 -72q-29 0 -89 17v-155q0 -41 6.5 -52t29.5 -12l45 -2v-37q-72 3 -145 3q-64 0 -129 -3v37l35 2q23 2 29.5 13t6.5 51v723 q0 44 -4.5 56.5t-21.5 13.5zM218 106q39 -55 101 -55q55 0 86.5 46t31.5 124q0 75 -32.5 117.5t-90.5 42.5q-63 0 -96 -50v-225z" />
<glyph unicode="&#xff;" horiz-adv-x="556" d="M10 421v38q66 -3 133 -3q66 0 132 3v-38l-35 -2q-26 -2 -26 -23q0 -8 17 -53l84 -218l101 252q4 10 4 22q0 18 -27 20l-33 2v38q46 -3 93 -3t93 3v-38l-26 -5q-22 -5 -41 -47l-199 -463q-74 -172 -176 -172q-35 0 -73 17l18 95l11 4q33 -37 70 -37q26 0 50.5 24t41.5 67 l23 56l-158 404q-21 54 -42 55zM108 599q0 28 20 47.5t48 19.5q27 0 46.5 -20t19.5 -47q0 -28 -19.5 -47.5t-47.5 -19.5t-47.5 19.5t-19.5 47.5zM323 600q0 27 20 46.5t48 19.5q27 0 46.5 -20t19.5 -47q0 -28 -19.5 -47.5t-47.5 -19.5t-47.5 20t-19.5 48z" />
<glyph unicode="&#x152;" horiz-adv-x="1000" d="M43 344q0 173 94.5 262t271.5 89q35 0 107 -9q65 -9 116 -8l187 3q10 0 28.5 0.5t26.5 0.5q45 0 94 -4l6 -7l-14 -142h-36l-8 75q-1 8 -29.5 14t-68.5 6q-70 0 -145 -4v-240q20 -2 67 -2h66q31 0 43 4.5t14 16.5l6 57h40q-3 -54 -3 -107q0 -54 3 -108h-40l-6 50 q-4 37 -57 37h-66q-25 0 -67 -3v-267l131 -3q73 0 116 14l3 3l23 94h39l-11 -158l-5 -8q-77 -4 -141 -4l-161 3l-66 1q-51 1 -120 -9q-51 -8 -87 -8q-164 0 -257.5 96t-93.5 265zM193 357q0 -151 58 -234.5t163 -83.5q63 0 118 36v519q-38 26 -65.5 35.5t-63.5 9.5 q-210 0 -210 -282z" />
<glyph unicode="&#x153;" horiz-adv-x="833" d="M48 225q0 119 64 182.5t184 63.5q54 0 91.5 -13t74.5 -44q78 57 154 57q82 0 132.5 -48.5t50.5 -127.5v-52q-80 -20 -158 -20h-131q3 -61 24 -98q19 -32 53 -51.5t72 -19.5q55 0 118 35l12 -15l-22 -48q-82 -43 -156 -43q-102 0 -163 64q-70 -64 -176 -64 q-107 0 -165.5 63.5t-58.5 178.5zM184 248q0 -217 109 -217q51 0 73.5 41t22.5 133q0 218 -106 218q-52 0 -75.5 -42t-23.5 -133zM504 276l32 -1l48 -2h4l84 3q-1 74 -20.5 106.5t-62.5 32.5t-63 -32.5t-22 -106.5z" />
<glyph unicode="&#x178;" horiz-adv-x="667" d="M15 622v37l159 36q35 -20 59.5 -49.5t54.5 -86.5l107 -203l188 322h77v-19l-176 -261q-26 -39 -53 -100v-163q0 -67 6.5 -79.5t41.5 -15.5l37 -3v-40q-78 3 -156 3q-77 0 -155 -3v40l37 3q35 3 41.5 15.5t6.5 79.5v139q-23 51 -44 85l-101 163q-39 63 -64.5 81.5 t-65.5 18.5zM187 809q0 28 20 47.5t48 19.5q27 0 46.5 -20t19.5 -47q0 -28 -19.5 -47.5t-47.5 -19.5t-47.5 19.5t-19.5 47.5zM402 810q0 27 20 46.5t48 19.5q27 0 46.5 -20t19.5 -47q0 -28 -19.5 -47.5t-47.5 -19.5t-47.5 20t-19.5 48z" />
<glyph unicode="&#x2c6;" horiz-adv-x="333" d="M-2 512l121 175h93l123 -175h-57l-112 98l-113 -98h-55z" />
<glyph unicode="&#x2dc;" horiz-adv-x="333" d="M-16 537q6 55 38.5 90t77.5 35q29 0 80 -24t75 -24q18 0 27.5 9.5t23.5 38.5h43q-18 -65 -46.5 -95.5t-71.5 -30.5q-31 0 -84 25q-47 23 -77 23q-31 0 -46 -47h-40z" />
<glyph unicode="&#x2000;" horiz-adv-x="463" />
<glyph unicode="&#x2001;" horiz-adv-x="926" />
<glyph unicode="&#x2002;" horiz-adv-x="463" />
<glyph unicode="&#x2003;" horiz-adv-x="926" />
<glyph unicode="&#x2004;" horiz-adv-x="308" />
<glyph unicode="&#x2005;" horiz-adv-x="231" />
<glyph unicode="&#x2006;" horiz-adv-x="154" />
<glyph unicode="&#x2007;" horiz-adv-x="154" />
<glyph unicode="&#x2008;" horiz-adv-x="115" />
<glyph unicode="&#x2009;" horiz-adv-x="185" />
<glyph unicode="&#x200a;" horiz-adv-x="51" />
<glyph unicode="&#x2010;" horiz-adv-x="333" d="M16 203q25 72 34 102h258l9 -10q-24 -53 -32 -100h-261z" />
<glyph unicode="&#x2011;" horiz-adv-x="333" d="M16 203q25 72 34 102h258l9 -10q-24 -53 -32 -100h-261z" />
<glyph unicode="&#x2012;" horiz-adv-x="333" d="M16 203q25 72 34 102h258l9 -10q-24 -53 -32 -100h-261z" />
<glyph unicode="&#x2013;" d="M0 208v83h500v-83h-500z" />
<glyph unicode="&#x2014;" horiz-adv-x="1000" d="M0 208v83h1000v-83h-1000z" />
<glyph unicode="&#x2018;" horiz-adv-x="278" d="M29 418q48 107 140 250l66 27l14 -16q-57 -128 -74 -241q-73 -9 -132 -33z" />
<glyph unicode="&#x2019;" horiz-adv-x="278" d="M29 421q57 128 74 241q76 10 132 33l14 -13q-47 -104 -140 -250l-66 -27z" />
<glyph unicode="&#x201a;" horiz-adv-x="333" d="M56 -144q57 131 74 241q76 10 132 33l14 -13q-47 -104 -140 -250l-66 -27z" />
<glyph unicode="&#x201c;" d="M34 418q48 107 140 250l66 27l14 -16q-57 -128 -74 -241q-74 -9 -132 -33zM246 418q48 107 140 250l66 27l14 -16q-57 -128 -74 -241q-74 -9 -132 -33z" />
<glyph unicode="&#x201d;" d="M34 421q57 128 74 241q76 10 132 33l14 -13q-47 -104 -140 -250l-66 -27zM246 421q57 128 74 241q76 10 132 33l14 -13q-47 -104 -140 -250l-66 -27z" />
<glyph unicode="&#x201e;" d="M34 -144q57 131 74 241q76 10 132 33l14 -13q-47 -104 -140 -250l-66 -27zM246 -144q57 131 74 241q76 10 132 33l14 -13q-47 -104 -140 -250l-66 -27z" />
<glyph unicode="&#x2022;" horiz-adv-x="606" d="M131 346q0 69 51 119.5t121 50.5q71 0 121.5 -51t50.5 -121t-50.5 -121t-120.5 -51q-72 0 -122.5 51t-50.5 123z" />
<glyph unicode="&#x2026;" horiz-adv-x="1000" d="M89 65q0 31 23.5 55t55.5 24q30 0 53.5 -24t23.5 -55t-23.5 -54t-55.5 -23q-31 0 -54 23t-23 54zM422 65q0 31 24 55t55 24q30 0 53.5 -24t23.5 -55t-23.5 -54t-55.5 -23q-31 0 -54 23t-23 54zM755 65q0 31 23.5 55t55.5 24q30 0 53.5 -24t23.5 -55t-23.5 -54t-55.5 -23 q-31 0 -54 23t-23 54z" />
<glyph unicode="&#x202f;" horiz-adv-x="185" />
<glyph unicode="&#x2039;" horiz-adv-x="389" d="M82 231v25q140 123 198 182l27 -22l-110 -173l110 -179l-27 -20q-122 125 -198 187z" />
<glyph unicode="&#x203a;" horiz-adv-x="389" d="M82 64l110 179l-110 173l27 22q65 -66 198 -182v-25q-75 -61 -198 -187z" />
<glyph unicode="&#x205f;" horiz-adv-x="231" />
<glyph unicode="&#x20ac;" d="M7 251l21 60q12 -2 17 -2h37v56q-44 0 -71 -3l21 60q14 -2 19 -2h38q15 103 76 171.5t178 68.5q39 0 85.5 -11.5t73.5 -32.5l6 -11q-11 -39 -21 -121h-39l-3 87q-35 39 -106 39q-61 0 -92.5 -54t-40.5 -136q201 0 221 2l-20 -60q-30 3 -205 3q-1 -15 -1 -34v-22 q167 0 187 2l-21 -60q-30 3 -163 3q3 -41 11 -77.5t23.5 -70.5t41.5 -53.5t61 -19.5q69 0 104 39l3 87h39q11 -86 21 -123l-6 -11q-27 -21 -72.5 -31.5t-86.5 -10.5q-65 0 -114.5 23.5t-78.5 64t-44.5 85.5t-20.5 98q-51 0 -78 -3z" />
<glyph unicode="&#x2122;" horiz-adv-x="998" d="M46 676q2 1 6 5q57 -2 171 -2t171 2q4 -4 6 -5q-5 -28 -7 -85h-29l-3 37q-6 14 -35 14h-57v-237q0 -42 19 -43l22 -2v-27l-87 1l-87 -1v27l22 2q19 1 19 43v237h-56q-34 0 -35 -13l-3 -38h-29q-5 68 -8 85zM436 332v26l22 2q23 3 23 45v203q0 42 -23 45l-22 1v27 q22 -2 67 -2q48 0 72 2q25 -51 123 -237l95 178l28 59q22 -2 65 -2q44 0 66 2v-27l-22 -1q-19 -2 -19 -45v-203q0 -42 19 -43l22 -2v-28q-58 2 -88 2q-28 0 -86 -2v28l22 2q19 1 19 43v184l-102 -192q-22 -40 -34 -68h-27q-25 53 -76.5 149.5t-59.5 111.5v-185q0 -42 23 -45 l22 -2v-26q-42 2 -64 2q-21 0 -65 -2z" />
<glyph unicode="&#xe000;" horiz-adv-x="470" d="M0 0v470h470v-470h-470z" />
</font>
</defs>
</svg>
